  0
SECTION
  2
HEADER
  9
$ACADVER
  1
AC1018
  9
$ACADMAINTVER
 70
   104
  9
$DWGCODEPAGE
  3
ANSI_1252
  9
$LASTSAVEDBY
  1
user
  9
$INSBASE
 10
0.0
 20
0.0
 30
0.0
  9
$EXTMIN
 10
1170.992058925614
 20
1277.958769832225
 30
0.0
  9
$EXTMAX
 10
1205.129185143507
 20
1299.783375172809
 30
0.0
  9
$LIMMIN
 10
0.0
 20
0.0
  9
$LIMMAX
 10
420.0
 20
297.0
  9
$ORTHOMODE
 70
     1
  9
$REGENMODE
 70
     1
  9
$FILLMODE
 70
     1
  9
$QTEXTMODE
 70
     0
  9
$MIRRTEXT
 70
     0
  9
$LTSCALE
 40
1.0
  9
$ATTMODE
 70
     1
  9
$TEXTSIZE
 40
0.3937
  9
$TRACEWID
 40
1.0
  9
$TEXTSTYLE
  7
\U+C2A4\U+D0C0\U+C77C2
  9
$CLAYER
  8
0
  9
$CELTYPE
  6
ByLayer
  9
$CECOLOR
 62
   256
  9
$CELTSCALE
 40
1.0
  9
$DISPSILH
 70
     0
  9
$DIMSCALE
 40
1.0
  9
$DIMASZ
 40
0.2
  9
$DIMEXO
 40
0.1
  9
$DIMDLI
 40
0.039
  9
$DIMRND
 40
0.0
  9
$DIMDLE
 40
0.0
  9
$DIMEXE
 40
0.2
  9
$DIMTP
 40
0.0
  9
$DIMTM
 40
0.0
  9
$DIMTXT
 40
2.5
  9
$DIMCEN
 40
0.039
  9
$DIMTSZ
 40
0.0
  9
$DIMTOL
 70
     0
  9
$DIMLIM
 70
     0
  9
$DIMTIH
 70
     0
  9
$DIMTOH
 70
     0
  9
$DIMSE1
 70
     0
  9
$DIMSE2
 70
     0
  9
$DIMTAD
 70
     1
  9
$DIMZIN
 70
     8
  9
$DIMBLK
  1

  9
$DIMASO
 70
     1
  9
$DIMSHO
 70
     1
  9
$DIMPOST
  1

  9
$DIMAPOST
  1

  9
$DIMALT
 70
     0
  9
$DIMALTD
 70
     2
  9
$DIMALTF
 40
0.0394
  9
$DIMLFAC
 40
1.0
  9
$DIMTOFL
 70
     1
  9
$DIMTVP
 40
1.0
  9
$DIMTIX
 70
     0
  9
$DIMSOXD
 70
     0
  9
$DIMSAH
 70
     0
  9
$DIMBLK1
  1

  9
$DIMBLK2
  1

  9
$DIMSTYLE
  2
DIN
  9
$DIMCLRD
 70
     0
  9
$DIMCLRE
 70
     0
  9
$DIMCLRT
 70
     0
  9
$DIMTFAC
 40
1.0
  9
$DIMGAP
 40
0.05
  9
$DIMJUST
 70
     0
  9
$DIMSD1
 70
     0
  9
$DIMSD2
 70
     0
  9
$DIMTOLJ
 70
     1
  9
$DIMTZIN
 70
     0
  9
$DIMALTZ
 70
     0
  9
$DIMALTTZ
 70
     0
  9
$DIMUPT
 70
     0
  9
$DIMDEC
 70
     4
  9
$DIMTDEC
 70
     4
  9
$DIMALTU
 70
     8
  9
$DIMALTTD
 70
     2
  9
$DIMTXSTY
  7
\U+C2A4\U+D0C0\U+C77C2
  9
$DIMAUNIT
 70
     0
  9
$DIMADEC
 70
     0
  9
$DIMALTRND
 40
0.0
  9
$DIMAZIN
 70
     0
  9
$DIMDSEP
 70
    46
  9
$DIMATFIT
 70
     3
  9
$DIMFRAC
 70
     0
  9
$DIMLDRBLK
  1

  9
$DIMLUNIT
 70
     6
  9
$DIMLWD
 70
    -2
  9
$DIMLWE
 70
    -2
  9
$DIMTMOVE
 70
     0
  9
$LUNITS
 70
     3
  9
$LUPREC
 70
     4
  9
$SKETCHINC
 40
1.0
  9
$FILLETRAD
 40
3.0
  9
$AUNITS
 70
     0
  9
$AUPREC
 70
     0
  9
$MENU
  1
.
  9
$ELEVATION
 40
0.0
  9
$PELEVATION
 40
0.0
  9
$THICKNESS
 40
0.0
  9
$LIMCHECK
 70
     0
  9
$CHAMFERA
 40
0.0
  9
$CHAMFERB
 40
0.0
  9
$CHAMFERC
 40
0.0
  9
$CHAMFERD
 40
0.0
  9
$SKPOLY
 70
     0
  9
$TDCREATE
 40
2454393.137688252
  9
$TDUCREATE
 40
2454393.346021586
  9
$TDUPDATE
 40
2458464.592296470
  9
$TDUUPDATE
 40
2458464.800629803
  9
$TDINDWG
 40
0.9110254630
  9
$TDUSRTIMER
 40
0.9110247569
  9
$USRTIMER
 70
     1
  9
$ANGBASE
 50
0.0
  9
$ANGDIR
 70
     0
  9
$PDMODE
 70
     0
  9
$PDSIZE
 40
0.0
  9
$PLINEWID
 40
0.0
  9
$SPLFRAME
 70
     0
  9
$SPLINETYPE
 70
     6
  9
$SPLINESEGS
 70
     8
  9
$HANDSEED
  5
300A
  9
$SURFTAB1
 70
     6
  9
$SURFTAB2
 70
     6
  9
$SURFTYPE
 70
     6
  9
$SURFU
 70
     6
  9
$SURFV
 70
     6
  9
$UCSBASE
  2

  9
$UCSNAME
  2

  9
$UCSORG
 10
0.0
 20
0.0
 30
0.0
  9
$UCSXDIR
 10
1.0
 20
0.0
 30
0.0
  9
$UCSYDIR
 10
0.0
 20
1.0
 30
0.0
  9
$UCSORTHOREF
  2

  9
$UCSORTHOVIEW
 70
     0
  9
$UCSORGTOP
 10
0.0
 20
0.0
 30
0.0
  9
$UCSORGBOTTOM
 10
0.0
 20
0.0
 30
0.0
  9
$UCSORGLEFT
 10
0.0
 20
0.0
 30
0.0
  9
$UCSORGRIGHT
 10
0.0
 20
0.0
 30
0.0
  9
$UCSORGFRONT
 10
0.0
 20
0.0
 30
0.0
  9
$UCSORGBACK
 10
0.0
 20
0.0
 30
0.0
  9
$PUCSBASE
  2

  9
$PUCSNAME
  2

  9
$PUCSORG
 10
0.0
 20
0.0
 30
0.0
  9
$PUCSXDIR
 10
1.0
 20
0.0
 30
0.0
  9
$PUCSYDIR
 10
0.0
 20
1.0
 30
0.0
  9
$PUCSORTHOREF
  2

  9
$PUCSORTHOVIEW
 70
     0
  9
$PUCSORGTOP
 10
0.0
 20
0.0
 30
0.0
  9
$PUCSORGBOTTOM
 10
0.0
 20
0.0
 30
0.0
  9
$PUCSORGLEFT
 10
0.0
 20
0.0
 30
0.0
  9
$PUCSORGRIGHT
 10
0.0
 20
0.0
 30
0.0
  9
$PUCSORGFRONT
 10
0.0
 20
0.0
 30
0.0
  9
$PUCSORGBACK
 10
0.0
 20
0.0
 30
0.0
  9
$USERI1
 70
     0
  9
$USERI2
 70
     0
  9
$USERI3
 70
     0
  9
$USERI4
 70
     0
  9
$USERI5
 70
     0
  9
$USERR1
 40
0.0
  9
$USERR2
 40
0.0
  9
$USERR3
 40
0.0
  9
$USERR4
 40
0.0
  9
$USERR5
 40
0.0
  9
$WORLDVIEW
 70
     1
  9
$SHADEDGE
 70
     3
  9
$SHADEDIF
 70
    70
  9
$TILEMODE
 70
     1
  9
$MAXACTVP
 70
    64
  9
$PINSBASE
 10
0.0
 20
0.0
 30
0.0
  9
$PLIMCHECK
 70
     0
  9
$PEXTMIN
 10
1.000000000000000E+20
 20
1.000000000000000E+20
 30
1.000000000000000E+20
  9
$PEXTMAX
 10
-1.000000000000000E+20
 20
-1.000000000000000E+20
 30
-1.000000000000000E+20
  9
$PLIMMIN
 10
0.0071835950613108
 20
0.0009369707933118
  9
$PLIMMAX
 10
841.0071835950612
 20
594.0009369707931
  9
$UNITMODE
 70
     0
  9
$VISRETAIN
 70
     1
  9
$PLINEGEN
 70
     0
  9
$PSLTSCALE
 70
     1
  9
$TREEDEPTH
 70
  3020
  9
$CMLSTYLE
  2
Standard
  9
$CMLJUST
 70
     0
  9
$CMLSCALE
 40
20.0
  9
$PROXYGRAPHICS
 70
     1
  9
$MEASUREMENT
 70
     1
  9
$CELWEIGHT
370
    -1
  9
$ENDCAPS
280
     0
  9
$JOINSTYLE
280
     0
  9
$LWDISPLAY
290
     0
  9
$INSUNITS
 70
     1
  9
$HYPERLINKBASE
  1

  9
$STYLESHEET
  1

  9
$XEDIT
290
     1
  9
$CEPSNTYPE
380
     0
  9
$PSTYLEMODE
290
     1
  9
$FINGERPRINTGUID
  2
{AC2FA5CB-6F18-4BC2-9C5F-F25C10372E5B}
  9
$VERSIONGUID
  2
{3CEB882F-2919-452D-A662-23CF00454BA5}
  9
$EXTNAMES
290
     1
  9
$PSVPSCALE
 40
0.0
  9
$OLESTARTUP
290
     0
  9
$SORTENTS
280
   127
  9
$INDEXCTL
280
     0
  9
$HIDETEXT
280
     0
  9
$XCLIPFRAME
290
     0
  9
$HALOGAP
280
     0
  9
$OBSCOLOR
 70
   257
  9
$OBSLTYPE
280
     0
  9
$INTERSECTIONDISPLAY
280
     0
  9
$INTERSECTIONCOLOR
 70
   257
  9
$DIMASSOC
280
     1
  9
$PROJECTNAME
  1

  0
ENDSEC
  0
SECTION
  2
CLASSES
  0
CLASS
  1
ACDBDICTIONARYWDFLT
  2
AcDbDictionaryWithDefault
  3
ObjectDBX Classes
 90
        0
 91
        1
280
     0
281
     0
  0
CLASS
  1
PLOTSETTINGS
  2
AcDbPlotSettings
  3
ObjectDBX Classes
 90
        0
 91
        0
280
     0
281
     0
  0
CLASS
  1
DICTIONARYVAR
  2
AcDbDictionaryVar
  3
ObjectDBX Classes
 90
        0
 91
        3
280
     0
281
     0
  0
CLASS
  1
TABLESTYLE
  2
AcDbTableStyle
  3
ObjectDBX Classes
 90
     4095
 91
        1
280
     0
281
     0
  0
CLASS
  1
DIMASSOC
  2
AcDbDimAssoc
  3
"AcDbDimAssoc|Product Desc:     AcDim ARX App For Dimension|Company:          Autodesk, Inc.|WEB Address:      www.autodesk.com"
 90
        0
 91
        0
280
     0
281
     0
  0
CLASS
  1
SORTENTSTABLE
  2
AcDbSortentsTable
  3
ObjectDBX Classes
 90
        0
 91
        2
280
     0
281
     0
  0
CLASS
  1
MATERIAL
  2
AcDbMaterial
  3
ObjectDBX Classes
 90
     1024
 91
        3
280
     0
281
     0
  0
CLASS
  1
VISUALSTYLE
  2
AcDbVisualStyle
  3
ObjectDBX Classes
 90
     4095
 91
       16
280
     0
281
     0
  0
ENDSEC
  0
SECTION
  2
TABLES
  0
TABLE
  2
VPORT
  5
19
330
0
100
AcDbSymbolTable
 70
     1
  0
VPORT
  5
2FDD
330
19
100
AcDbSymbolTableRecord
100
AcDbViewportTableRecord
  2
*Active
 70
     0
 10
0.0
 20
0.0
 11
1.0
 21
1.0
 12
1190.389103315386
 22
1286.674783926342
 13
0.0
 23
0.0
 14
10.0
 24
10.0
 15
10.0
 25
10.0
 16
0.0
 26
0.0
 36
1.0
 17
0.0
 27
0.0
 37
0.0
 40
16.8584182007412
 41
2.738095238095238
 42
50.0
 43
0.0
 44
0.0
 50
0.0
 51
0.0
 71
     0
 72
  1000
 73
     1
 74
     3
 75
     0
 76
     0
 77
     0
 78
     0
281
     0
 65
     1
110
0.0
120
0.0
130
0.0
111
1.0
121
0.0
131
0.0
112
0.0
122
1.0
132
0.0
 79
     0
146
0.0
  0
ENDTAB
  0
TABLE
  2
LTYPE
  5
14
330
0
100
AcDbSymbolTable
 70
     2
  0
LTYPE
  5
15
330
14
100
AcDbSymbolTableRecord
100
AcDbLinetypeTableRecord
  2
ByBlock
 70
     0
  3

 72
    65
 73
     0
 40
0.0
  0
LTYPE
  5
16
330
14
100
AcDbSymbolTableRecord
100
AcDbLinetypeTableRecord
  2
ByLayer
 70
     0
  3

 72
    65
 73
     0
 40
0.0
  0
LTYPE
  5
8
330
14
100
AcDbSymbolTableRecord
100
AcDbLinetypeTableRecord
  2
Continuous
 70
     0
  3
Solid line
 72
    65
 73
     0
 40
0.0
  0
LTYPE
  5
1811
330
14
100
AcDbSymbolTableRecord
100
AcDbLinetypeTableRecord
  2
ACAD_ISO04W100
 70
     0
  3
ISO long-dash dot ____ . ____ . ____ . ____ . _
 72
    65
 73
     4
 40
30.0
 49
24.0
 74
     0
 49
-3.0
 74
     0
 49
0.0
 74
     0
 49
-3.0
 74
     0
  0
ENDTAB
  0
TABLE
  2
LAYER
  5
10
102
{ACAD_XDICTIONARY
360
1CC0
102
}
330
0
100
AcDbSymbolTable
 70
    24
  0
LAYER
  5
4
330
10
100
AcDbSymbolTableRecord
100
AcDbLayerTableRecord
  2
0
 70
     0
 62
     7
  6
Continuous
370
    -3
390
5
  0
LAYER
  5
8E
330
10
100
AcDbSymbolTableRecord
100
AcDbLayerTableRecord
  2
07
 70
     0
 62
     7
  6
Continuous
370
    -3
390
5
  0
LAYER
  5
8F
330
10
100
AcDbSymbolTableRecord
100
AcDbLayerTableRecord
  2
035
 70
     0
 62
     5
  6
Continuous
370
    -3
390
5
  0
LAYER
  5
90
330
10
100
AcDbSymbolTableRecord
100
AcDbLayerTableRecord
  2
05
 70
     0
 62
     6
  6
Continuous
370
    -3
390
5
  0
LAYER
  5
91
330
10
100
AcDbSymbolTableRecord
100
AcDbLayerTableRecord
  2
025
 70
     0
 62
     1
  6
Continuous
370
    -3
390
5
  0
LAYER
  5
5CE
330
10
100
AcDbSymbolTableRecord
100
AcDbLayerTableRecord
  2
Defpoints
 70
     0
 62
     7
  6
Continuous
290
     0
370
    -3
390
5
  0
LAYER
  5
62B
330
10
100
AcDbSymbolTableRecord
100
AcDbLayerTableRecord
  2
\U+7C97\U+5B9E\U+7EBF
 70
     0
 62
     7
  6
Continuous
370
    30
390
5
  0
LAYER
  5
62C
330
10
100
AcDbSymbolTableRecord
100
AcDbLayerTableRecord
  2
\U+6807\U+6CE8\U+7EBF
 70
     0
 62
     7
  6
Continuous
370
    13
390
5
  0
LAYER
  5
1812
330
10
100
AcDbSymbolTableRecord
100
AcDbLayerTableRecord
  2
\U+4E2D\U+5FC3\U+7EBF
 70
     0
 62
     7
  6
ACAD_ISO04W100
370
    18
390
5
  0
LAYER
  5
26BA
330
10
100
AcDbSymbolTableRecord
100
AcDbLayerTableRecord
  2
LC-001-002-----0
 70
     0
 62
     1
  6
ByBlock
370
    -3
390
5
  0
LAYER
  5
26BB
330
10
100
AcDbSymbolTableRecord
100
AcDbLayerTableRecord
  2
LC-002-002-RND-0
 70
     0
 62
     1
  6
ByBlock
370
    -3
390
5
  0
LAYER
  5
26BC
330
10
100
AcDbSymbolTableRecord
100
AcDbLayerTableRecord
  2
LC-003-001-RND-0
 70
     0
 62
     1
  6
ByBlock
370
    -3
390
5
  0
LAYER
  5
26BD
330
10
100
AcDbSymbolTableRecord
100
AcDbLayerTableRecord
  2
LC-004-001-----0
 70
     0
 62
     1
  6
ByBlock
370
    -3
390
5
  0
LAYER
  5
26BE
330
10
100
AcDbSymbolTableRecord
100
AcDbLayerTableRecord
  2
LC-005-005-----0
 70
     0
 62
     2
  6
ByBlock
370
    -3
390
5
  0
LAYER
  5
2762
330
10
100
AcDbSymbolTableRecord
100
AcDbLayerTableRecord
  2
LC-002-001-RND-0
 70
     0
 62
     1
  6
ByBlock
370
    -3
390
5
  0
LAYER
  5
2763
330
10
100
AcDbSymbolTableRecord
100
AcDbLayerTableRecord
  2
LC-003-001-----0
 70
     0
 62
     1
  6
ByBlock
370
    -3
390
5
  0
LAYER
  5
2764
330
10
100
AcDbSymbolTableRecord
100
AcDbLayerTableRecord
  2
LC-004-005-----0
 70
     0
 62
     2
  6
ByBlock
370
    -3
390
5
  0
LAYER
  5
29AA
330
10
100
AcDbSymbolTableRecord
100
AcDbLayerTableRecord
  2
LC-002-020-----0
 70
     0
 62
     1
  6
ByBlock
370
    -3
390
5
  0
LAYER
  5
29AB
330
10
100
AcDbSymbolTableRecord
100
AcDbLayerTableRecord
  2
LC-003-005-----0
 70
     0
 62
     2
  6
ByBlock
370
    -3
390
5
  0
LAYER
  5
2A31
330
10
100
AcDbSymbolTableRecord
100
AcDbLayerTableRecord
  2
LC-004-003-MTG-0
 70
     0
 62
     2
  6
ByBlock
370
    -3
390
5
  0
LAYER
  5
2A32
330
10
100
AcDbSymbolTableRecord
100
AcDbLayerTableRecord
  2
LC-005-003-----0
 70
     0
 62
     2
  6
ByBlock
370
    -3
390
5
  0
LAYER
  5
2AD2
330
10
100
AcDbSymbolTableRecord
100
AcDbLayerTableRecord
  2
LC-004-003-----0
 70
     0
 62
     2
  6
ByBlock
370
    -3
390
5
  0
LAYER
  5
2DCD
330
10
100
AcDbSymbolTableRecord
100
AcDbLayerTableRecord
  2
LC-001-002-RND-0
 70
     0
 62
     1
  6
ByBlock
370
    -3
390
5
  0
LAYER
  5
2DCE
330
10
100
AcDbSymbolTableRecord
100
AcDbLayerTableRecord
  2
LC-002-002-----0
 70
     0
 62
     1
  6
ByBlock
370
    -3
390
5
  0
ENDTAB
  0
TABLE
  2
STYLE
  5
11
330
0
100
AcDbSymbolTable
 70
     5
  0
STYLE
  5
12
330
11
100
AcDbSymbolTableRecord
100
AcDbTextStyleTableRecord
  2
Standard
 70
     0
 40
0.0
 41
1.0
 50
0.0
 71
     0
 42
2.5
  3
txt
  4

  0
STYLE
  5
31
330
11
100
AcDbSymbolTableRecord
100
AcDbTextStyleTableRecord
  2
ISO Proportional
 70
     0
 40
0.0
 41
1.0
 50
0.0
 71
     0
 42
2.5
  3
isocp.shx
  4

  0
STYLE
  5
B96
330
11
100
AcDbSymbolTableRecord
100
AcDbTextStyleTableRecord
  2
\U+C2A4\U+D0C0\U+C77C1
 70
     0
 40
0.1968
 41
1.0
 50
0.0
 71
     0
 42
2.5
  3
txt.shx
  4

  0
STYLE
  5
B97
330
11
100
AcDbSymbolTableRecord
100
AcDbTextStyleTableRecord
  2
\U+C2A4\U+D0C0\U+C77C2
 70
     0
 40
0.3937
 41
1.0
 50
0.0
 71
     0
 42
0.3937
  3
txt.shx
  4

  0
STYLE
  5
2A33
330
11
100
AcDbSymbolTableRecord
100
AcDbTextStyleTableRecord
  2
LCTX0-400-0-0pDIN-Schrift
 70
     0
 40
0.0
 41
0.7
 50
0.0
 71
     0
 42
3.5
  3
TXT
  4

  0
ENDTAB
  0
TABLE
  2
VIEW
  5
17
330
0
100
AcDbSymbolTable
 70
     0
  0
ENDTAB
  0
TABLE
  2
UCS
  5
18
330
0
100
AcDbSymbolTable
 70
     0
  0
ENDTAB
  0
TABLE
  2
APPID
  5
1B
330
0
100
AcDbSymbolTable
 70
    12
  0
APPID
  5
1C
330
1B
100
AcDbSymbolTableRecord
100
AcDbRegAppTableRecord
  2
ACAD
 70
     0
  0
APPID
  5
346
330
1B
100
AcDbSymbolTableRecord
100
AcDbRegAppTableRecord
  2
GENIUS_GENTRA_14
 70
     0
  0
APPID
  5
347
330
1B
100
AcDbSymbolTableRecord
100
AcDbRegAppTableRecord
  2
GENIUS_GENODEF_13
 70
     0
  0
APPID
  5
348
330
1B
100
AcDbSymbolTableRecord
100
AcDbRegAppTableRecord
  2
GENIUS_GENOBJ-N-TIT_13
 70
     0
  0
APPID
  5
349
330
1B
100
AcDbSymbolTableRecord
100
AcDbRegAppTableRecord
  2
GENIUS_GENTITLE_13
 70
     0
  0
APPID
  5
34A
330
1B
100
AcDbSymbolTableRecord
100
AcDbRegAppTableRecord
  2
GENIUS_GENOENT_13
 70
     0
  0
APPID
  5
34B
330
1B
100
AcDbSymbolTableRecord
100
AcDbRegAppTableRecord
  2
GENIUS_GENOREF_13
 70
     0
  0
APPID
  5
34C
330
1B
100
AcDbSymbolTableRecord
100
AcDbRegAppTableRecord
  2
GENIUS_GENOLIS_13
 70
     0
  0
APPID
  5
34D
330
1B
100
AcDbSymbolTableRecord
100
AcDbRegAppTableRecord
  2
GENIUS_GENOBJ-N-SDF_13
 70
     0
  0
APPID
  5
34E
330
1B
100
AcDbSymbolTableRecord
100
AcDbRegAppTableRecord
  2
GENIUS_GENSCREG_13
 70
     0
  0
APPID
  5
886
330
1B
100
AcDbSymbolTableRecord
100
AcDbRegAppTableRecord
  2
ACAD_DSTYLE_DIMTEXT_FILL
 70
     0
  0
APPID
  5
B8B
330
1B
100
AcDbSymbolTableRecord
100
AcDbRegAppTableRecord
  2
ACAD_PSEXT
 70
     0
  0
ENDTAB
  0
TABLE
  2
DIMSTYLE
  5
1D
330
0
100
AcDbSymbolTable
 70
     7
100
AcDbDimStyleTable
 71
     1
340
1E
  0
DIMSTYLE
105
1E
102
{ACAD_REACTORS
330
2F23
330
2F30
330
2F3D
330
2F4A
330
2F53
330
2F5C
330
2F65
330
2F6F
330
2F78
330
2F85
330
2F92
330
2F9C
102
}
330
1D
100
AcDbSymbolTableRecord
100
AcDbDimStyleTableRecord
  2
DIN
 70
     0
 41
2.5
 42
0.625
 43
3.75
 44
1.25
 74
     0
 77
     1
 78
     8
140
2.5
141
2.5
143
0.0394
145
1.0
147
0.625
172
     1
273
     8
277
     6
340
12
  0
DIMSTYLE
105
62D
330
1D
100
AcDbSymbolTableRecord
100
AcDbDimStyleTableRecord
  2
ISO-25
 70
     0
 41
10.0
 42
0.625
 43
3.75
 44
10.0
 73
     0
 74
     0
 77
     1
 78
     8
140
20.0
141
2.5
143
0.03937007874016
147
10.0
171
     3
172
     1
271
     2
272
     2
274
     3
278
    44
279
     1
283
     0
284
     8
340
12
  0
DIMSTYLE
105
62E
330
1D
100
AcDbSymbolTableRecord
100
AcDbDimStyleTableRecord
  2
\U+526F\U+672CISO-25
 70
     0
 41
15.0
 42
0.625
 43
3.75
 44
2.0
 73
     0
 74
     0
 77
     1
 78
     8
140
22.0
141
2.5
143
0.03937007874016
147
10.0
171
     3
179
     1
271
     1
272
     1
274
     3
278
    44
279
     1
283
     0
284
     8
340
12
  0
DIMSTYLE
105
62F
330
1D
100
AcDbSymbolTableRecord
100
AcDbDimStyleTableRecord
  2
\U+526F\U+672C (2)ISO-25
 70
     0
 41
10.0
 42
0.625
 43
3.75
 44
10.0
 73
     0
 74
     0
 77
     1
 78
     8
140
10.0
141
2.5
143
0.03937007874016
147
10.0
171
     3
172
     1
271
     2
272
     2
274
     3
278
    44
283
     0
284
     8
340
12
  0
DIMSTYLE
105
1FA0
330
1D
100
AcDbSymbolTableRecord
100
AcDbDimStyleTableRecord
  2
Standard
 70
     0
 41
25.0
 42
5.0
 43
2.0
 44
5.0
 73
     0
 74
     0
 77
     1
 78
    12
 79
     3
140
30.0
141
4.0
147
4.0
179
     2
340
12
  0
DIMSTYLE
105
2AD3
330
1D
100
AcDbSymbolTableRecord
100
AcDbDimStyleTableRecord
  2
LC-DIM-L-0025-02-02
 70
     0
 41
2.5
 42
0.0
 43
7.5
 44
1.8
 73
     0
 74
     0
 77
     1
 78
     8
 79
     2
140
2.5
141
0.0
146
0.71
147
1.5
172
     1
176
     2
177
     2
178
     2
179
     2
271
     2
278
    44
289
     1
340
2A33
  0
DIMSTYLE
105
2AD4
330
1D
100
AcDbSymbolTableRecord
100
AcDbDimStyleTableRecord
  2
LC-DIM-R-0025-02-02
 70
     0
 41
2.5
 42
0.0
 43
7.5
 44
1.8
 73
     0
 74
     0
 77
     1
 78
     8
 79
     2
140
2.5
141
0.0
146
0.71
147
1.5
176
     2
177
     2
178
     2
179
     2
271
     2
278
    44
289
     1
340
2A33
  0
ENDTAB
  0
TABLE
  2
BLOCK_RECORD
  5
1
330
0
100
AcDbSymbolTable
 70
    16
  0
BLOCK_RECORD
  5
2
102
{ACAD_XDICTIONARY
360
95E
102
}
330
1
100
AcDbSymbolTableRecord
100
AcDbBlockTableRecord
  2
*Model_Space
340
A
  0
BLOCK_RECORD
  5
C
330
1
100
AcDbSymbolTableRecord
100
AcDbBlockTableRecord
  2
*Paper_Space
340
F
  0
BLOCK_RECORD
  5
2A1A
330
1
100
AcDbSymbolTableRecord
100
AcDbBlockTableRecord
  2
LCDIM1
340
0
  0
BLOCK_RECORD
  5
2E80
330
1
100
AcDbSymbolTableRecord
100
AcDbBlockTableRecord
  2
*X1
340
0
102
{BLKREFS
331
2F21
102
}
  0
BLOCK_RECORD
  5
2E9F
330
1
100
AcDbSymbolTableRecord
100
AcDbBlockTableRecord
  2
*X2
340
0
102
{BLKREFS
331
2F22
102
}
  0
BLOCK_RECORD
  5
2F24
330
1
100
AcDbSymbolTableRecord
100
AcDbBlockTableRecord
  2
*D3
340
0
  0
BLOCK_RECORD
  5
2F31
330
1
100
AcDbSymbolTableRecord
100
AcDbBlockTableRecord
  2
*D4
340
0
  0
BLOCK_RECORD
  5
2F3E
330
1
100
AcDbSymbolTableRecord
100
AcDbBlockTableRecord
  2
*D5
340
0
  0
BLOCK_RECORD
  5
2F4B
330
1
100
AcDbSymbolTableRecord
100
AcDbBlockTableRecord
  2
*D6
340
0
  0
BLOCK_RECORD
  5
2F54
330
1
100
AcDbSymbolTableRecord
100
AcDbBlockTableRecord
  2
*D7
340
0
  0
BLOCK_RECORD
  5
2F5D
330
1
100
AcDbSymbolTableRecord
100
AcDbBlockTableRecord
  2
*D8
340
0
  0
BLOCK_RECORD
  5
2F66
330
1
100
AcDbSymbolTableRecord
100
AcDbBlockTableRecord
  2
*D9
340
0
  0
BLOCK_RECORD
  5
2F70
330
1
100
AcDbSymbolTableRecord
100
AcDbBlockTableRecord
  2
*D10
340
0
  0
BLOCK_RECORD
  5
2F79
330
1
100
AcDbSymbolTableRecord
100
AcDbBlockTableRecord
  2
*D11
340
0
  0
BLOCK_RECORD
  5
2F86
330
1
100
AcDbSymbolTableRecord
100
AcDbBlockTableRecord
  2
*D12
340
0
  0
BLOCK_RECORD
  5
2F93
330
1
100
AcDbSymbolTableRecord
100
AcDbBlockTableRecord
  2
*D13
340
0
  0
BLOCK_RECORD
  5
2F9D
330
1
100
AcDbSymbolTableRecord
100
AcDbBlockTableRecord
  2
*D14
340
0
  0
ENDTAB
  0
ENDSEC
  0
SECTION
  2
BLOCKS
  0
BLOCK
  5
3
330
2
100
AcDbEntity
  8
0
100
AcDbBlockBegin
  2
*Model_Space
 70
     2
 10
0.0
 20
0.0
 30
0.0
  3
*Model_Space
  1

  0
ENDBLK
  5
9
330
2
100
AcDbEntity
  8
0
100
AcDbBlockEnd
  0
BLOCK
  5
D
330
C
100
AcDbEntity
 67
     1
  8
0
100
AcDbBlockBegin
  2
*Paper_Space
 70
     0
 10
0.0
 20
0.0
 30
0.0
  3
*Paper_Space
  1

  0
ENDBLK
  5
E
330
C
100
AcDbEntity
 67
     1
  8
0
100
AcDbBlockEnd
  0
BLOCK
  5
2A1B
330
2A1A
100
AcDbEntity
  8
0
100
AcDbBlockBegin
  2
LCDIM1
 70
     0
 10
0.0
 20
0.0
 30
0.0
  3
LCDIM1
  1

  4
LCDIM1
  0
LINE
  5
2A1C
330
2A1A
100
AcDbEntity
  8
LC-004-003-MTG-0
 62
     7
370
    25
100
AcDbLine
 10
530.6772829999998
 20
541.813267
 30
0.0
 11
572.0219369999997
 21
549.203774
 31
0.0
  0
LINE
  5
2A1D
330
2A1A
100
AcDbEntity
  8
LC-005-003-----0
 62
     7
370
    25
100
AcDbLine
 10
533.0598
 20
542.5706389999998
 30
0.0
 11
530.6772829999998
 21
541.813267
 31
0.0
  0
LINE
  5
2A1E
330
2A1A
100
AcDbEntity
  8
LC-005-003-----0
 62
     7
370
    25
100
AcDbLine
 10
530.6772829999998
 20
541.813267
 30
0.0
 11
533.17464
 21
541.9281909999998
 31
0.0
  0
LINE
  5
2A1F
330
2A1A
100
AcDbEntity
  8
LC-005-003-----0
 62
     7
370
    25
100
AcDbLine
 10
533.17464
 20
541.9281909999998
 30
0.0
 11
533.0598
 21
542.5706389999998
 31
0.0
  0
LINE
  5
2A20
330
2A1A
100
AcDbEntity
  8
LC-005-003-----0
 62
     7
370
    25
100
AcDbLine
 10
533.080204
 20
542.488099
 30
0.0
 11
531.3171409999998
 21
541.9276439999999
 31
0.0
  0
LINE
  5
2A21
330
2A1A
100
AcDbEntity
  8
LC-005-003-----0
 62
     7
370
    25
100
AcDbLine
 10
531.3171409999998
 20
541.9276439999999
 30
0.0
 11
533.1651849999998
 21
542.012688
 31
0.0
  0
LINE
  5
2A22
330
2A1A
100
AcDbEntity
  8
LC-005-003-----0
 62
     7
370
    25
100
AcDbLine
 10
533.100607
 20
542.405559
 30
0.0
 11
531.9569979999998
 21
542.0420209999998
 31
0.0
  0
LINE
  5
2A23
330
2A1A
100
AcDbEntity
  8
LC-005-003-----0
 62
     7
370
    25
100
AcDbLine
 10
531.9569979999998
 20
542.0420209999998
 30
0.0
 11
533.1557299999998
 21
542.0971839999999
 31
0.0
  0
LINE
  5
2A24
330
2A1A
100
AcDbEntity
  8
LC-005-003-----0
 62
     7
370
    25
100
AcDbLine
 10
533.1210099999998
 20
542.32302
 30
0.0
 11
532.5968559999998
 21
542.1563980000001
 31
0.0
  0
LINE
  5
2A25
330
2A1A
100
AcDbEntity
  8
LC-005-003-----0
 62
     7
370
    25
100
AcDbLine
 10
532.5968559999998
 20
542.1563980000001
 30
0.0
 11
533.1462749999998
 21
542.1816809999998
 31
0.0
  0
LINE
  5
2A26
330
2A1A
100
AcDbEntity
  8
LC-005-003-----0
 62
     7
370
    25
100
AcDbLine
 10
569.6394199999997
 20
548.4464019999998
 30
0.0
 11
572.0219369999997
 21
549.203774
 31
0.0
  0
LINE
  5
2A27
330
2A1A
100
AcDbEntity
  8
LC-005-003-----0
 62
     7
370
    25
100
AcDbLine
 10
572.0219369999997
 20
549.203774
 30
0.0
 11
569.52458
 21
549.0888499999998
 31
0.0
  0
LINE
  5
2A28
330
2A1A
100
AcDbEntity
  8
LC-005-003-----0
 62
     7
370
    25
100
AcDbLine
 10
569.52458
 20
549.0888499999998
 30
0.0
 11
569.6394199999997
 21
548.4464019999998
 31
0.0
  0
LINE
  5
2A29
330
2A1A
100
AcDbEntity
  8
LC-005-003-----0
 62
     7
370
    25
100
AcDbLine
 10
569.6190159999997
 20
548.5289419999998
 30
0.0
 11
571.3820789999997
 21
549.089397
 31
0.0
  0
LINE
  5
2A2A
330
2A1A
100
AcDbEntity
  8
LC-005-003-----0
 62
     7
370
    25
100
AcDbLine
 10
571.3820789999997
 20
549.089397
 30
0.0
 11
569.534035
 21
549.004353
 31
0.0
  0
LINE
  5
2A2B
330
2A1A
100
AcDbEntity
  8
LC-005-003-----0
 62
     7
370
    25
100
AcDbLine
 10
569.598613
 20
548.611482
 30
0.0
 11
570.7422209999997
 21
548.9750199999998
 31
0.0
  0
LINE
  5
2A2C
330
2A1A
100
AcDbEntity
  8
LC-005-003-----0
 62
     7
370
    25
100
AcDbLine
 10
570.7422209999997
 20
548.9750199999998
 30
0.0
 11
569.54349
 21
548.919856
 31
0.0
  0
LINE
  5
2A2D
330
2A1A
100
AcDbEntity
  8
LC-005-003-----0
 62
     7
370
    25
100
AcDbLine
 10
569.57821
 20
548.694021
 30
0.0
 11
570.1023639999997
 21
548.8606429999999
 31
0.0
  0
LINE
  5
2A2E
330
2A1A
100
AcDbEntity
  8
LC-005-003-----0
 62
     7
370
    25
100
AcDbLine
 10
570.1023639999997
 20
548.8606429999999
 30
0.0
 11
569.552945
 21
548.8353599999998
 31
0.0
  0
TEXT
  5
2A2F
330
2A1A
100
AcDbEntity
  8
LC-005-003-----0
 62
     7
370
    25
100
AcDbText
 10
540.1123619545855
 20
545.0235976179942
 30
0.0
 40
2.5
  1
%%c420 (16.54")
 50
10.134788
 41
0.7
  7
LCTX0-400-0-0pDIN-Schrift
 72
     1
 11
549.1565049999998
 21
546.6402709999998
 31
0.0
100
AcDbText
  0
ENDBLK
  5
2A30
330
2A1A
100
AcDbEntity
  8
0
100
AcDbBlockEnd
  0
BLOCK
  5
2E81
330
2E80
100
AcDbEntity
  8
0
100
AcDbBlockBegin
  2
*X1
 70
     1
 10
0.0
 20
0.0
 30
0.0
  3
*X1
  1

  4
*X1
  0
LINE
  5
2E82
330
2E80
100
AcDbEntity
  8
LC-003-005-----0
 62
     7
370
    25
100
AcDbLine
 10
651.2035639999997
 20
396.645123
 30
0.0
 11
653.192484
 21
398.634043
 31
0.0
  0
LINE
  5
2E83
330
2E80
100
AcDbEntity
  8
LC-003-005-----0
 62
     7
370
    25
100
AcDbLine
 10
649.059423
 20
397.329409
 30
0.0
 11
653.463665
 21
401.7336509999998
 31
0.0
  0
LINE
  5
2E84
330
2E80
100
AcDbEntity
  8
LC-003-005-----0
 62
     7
370
    25
100
AcDbLine
 10
646.915283
 20
398.013696
 30
0.0
 11
653.734845
 21
404.833258
 31
0.0
  0
LINE
  5
2E85
330
2E80
100
AcDbEntity
  8
LC-003-005-----0
 62
     7
370
    25
100
AcDbLine
 10
645.205523
 20
399.132363
 30
0.0
 11
654.006026
 21
407.9328659999998
 31
0.0
  0
LINE
  5
2E86
330
2E80
100
AcDbEntity
  8
LC-003-005-----0
 62
     7
370
    25
100
AcDbLine
 10
645.476703
 20
402.2319709999998
 30
0.0
 11
654.2772059999999
 21
411.032474
 31
0.0
  0
LINE
  5
2E87
330
2E80
100
AcDbEntity
  8
LC-003-005-----0
 62
     7
370
    25
100
AcDbLine
 10
645.747884
 20
405.331578
 30
0.0
 11
654.548387
 21
414.132081
 31
0.0
  0
LINE
  5
2E88
330
2E80
100
AcDbEntity
  8
LC-003-005-----0
 62
     7
370
    25
100
AcDbLine
 10
681.972082
 20
441.5557759999998
 30
0.0
 11
683.509494
 21
443.093188
 31
0.0
  0
LINE
  5
2E89
330
2E80
100
AcDbEntity
  8
LC-003-005-----0
 62
     7
370
    25
100
AcDbLine
 10
646.0190650000002
 20
408.4311859999998
 30
0.0
 11
654.819567
 21
417.231689
 31
0.0
  0
LINE
  5
2E8A
330
2E80
100
AcDbEntity
  8
LC-003-005-----0
 62
     7
370
    25
100
AcDbLine
 10
679.143655
 20
441.5557759999998
 30
0.0
 11
683.324637
 21
445.736759
 31
0.0
  0
LINE
  5
2E8B
330
2E80
100
AcDbEntity
  8
LC-003-005-----0
 62
     7
370
    25
100
AcDbLine
 10
646.290245
 20
411.530794
 30
0.0
 11
655.0907480000002
 21
420.3312969999998
 31
0.0
  0
LINE
  5
2E8C
330
2E80
100
AcDbEntity
  8
LC-003-005-----0
 62
     7
370
    25
100
AcDbLine
 10
676.315228
 20
441.5557759999998
 30
0.0
 11
682.606356
 21
447.846905
 31
0.0
  0
LINE
  5
2E8D
330
2E80
100
AcDbEntity
  8
LC-003-005-----0
 62
     7
370
    25
100
AcDbLine
 10
646.5614259999997
 20
414.6304009999998
 30
0.0
 11
655.361929
 21
423.430904
 31
0.0
  0
LINE
  5
2E8E
330
2E80
100
AcDbEntity
  8
LC-003-005-----0
 62
     7
370
    25
100
AcDbLine
 10
673.486801
 20
441.5557759999998
 30
0.0
 11
681.0816599999997
 21
449.1506349999998
 31
0.0
  0
LINE
  5
2E8F
330
2E80
100
AcDbEntity
  8
LC-003-005-----0
 62
     7
370
    25
100
AcDbLine
 10
646.8326059999998
 20
417.730009
 30
0.0
 11
655.633109
 21
426.5305119999998
 31
0.0
  0
LINE
  5
2E90
330
2E80
100
AcDbEntity
  8
LC-003-005-----0
 62
     7
370
    25
100
AcDbLine
 10
669.1583739999997
 20
440.0557759999998
 30
0.0
 11
669.6169999999997
 21
440.514403
 31
0.0
  0
LINE
  5
2E91
330
2E80
100
AcDbEntity
  8
LC-003-005-----0
 62
     7
370
    25
100
AcDbLine
 10
670.658374
 20
441.5557759999998
 30
0.0
 11
678.658374
 21
449.5557759999998
 31
0.0
  0
LINE
  5
2E92
330
2E80
100
AcDbEntity
  8
LC-003-005-----0
 62
     7
370
    25
100
AcDbLine
 10
647.1037869999999
 20
420.8296169999998
 30
0.0
 11
655.90429
 21
429.63012
 31
0.0
  0
LINE
  5
2E93
330
2E80
100
AcDbEntity
  8
LC-003-005-----0
 62
     7
370
    25
100
AcDbLine
 10
666.3299459999997
 20
440.0557759999998
 30
0.0
 11
675.8299459999997
 21
449.5557759999998
 31
0.0
  0
LINE
  5
2E94
330
2E80
100
AcDbEntity
  8
LC-003-005-----0
 62
     7
370
    25
100
AcDbLine
 10
647.374967
 20
423.929224
 30
0.0
 11
656.17547
 21
432.7297269999998
 31
0.0
  0
LINE
  5
2E95
330
2E80
100
AcDbEntity
  8
LC-003-005-----0
 62
     7
370
    25
100
AcDbLine
 10
663.501519
 20
440.0557759999998
 30
0.0
 11
673.001519
 21
449.5557759999998
 31
0.0
  0
LINE
  5
2E96
330
2E80
100
AcDbEntity
  8
LC-003-005-----0
 62
     7
370
    25
100
AcDbLine
 10
647.646148
 20
427.028832
 30
0.0
 11
656.4604559999998
 21
435.84314
 31
0.0
  0
LINE
  5
2E97
330
2E80
100
AcDbEntity
  8
LC-003-005-----0
 62
     7
370
    25
100
AcDbLine
 10
660.6107089999998
 20
439.9933929999998
 30
0.0
 11
670.173092
 21
449.5557759999998
 31
0.0
  0
LINE
  5
2E98
330
2E80
100
AcDbEntity
  8
LC-003-005-----0
 62
     7
370
    25
100
AcDbLine
 10
647.917328
 20
430.12844
 30
0.0
 11
667.344665
 21
449.5557759999998
 31
0.0
  0
LINE
  5
2E99
330
2E80
100
AcDbEntity
  8
LC-003-005-----0
 62
     7
370
    25
100
AcDbLine
 10
648.1885089999997
 20
433.2280469999998
 30
0.0
 11
664.516238
 21
449.5557759999998
 31
0.0
  0
LINE
  5
2E9A
330
2E80
100
AcDbEntity
  8
LC-003-005-----0
 62
     7
370
    25
100
AcDbLine
 10
648.4596889999997
 20
436.327655
 30
0.0
 11
661.687811
 21
449.5557759999998
 31
0.0
  0
LINE
  5
2E9B
330
2E80
100
AcDbEntity
  8
LC-003-005-----0
 62
     7
370
    25
100
AcDbLine
 10
648.7308699999998
 20
439.4272629999998
 30
0.0
 11
658.8593839999997
 21
449.5557759999998
 31
0.0
  0
LINE
  5
2E9C
330
2E80
100
AcDbEntity
  8
LC-003-005-----0
 62
     7
370
    25
100
AcDbLine
 10
649.00205
 20
442.52687
 30
0.0
 11
656.0309570000002
 21
449.5557759999998
 31
0.0
  0
LINE
  5
2E9D
330
2E80
100
AcDbEntity
  8
LC-003-005-----0
 62
     7
370
    25
100
AcDbLine
 10
649.326662
 20
445.679909
 30
0.0
 11
653.0745229999999
 21
449.42777
 31
0.0
  0
ENDBLK
  5
2E9E
330
2E80
100
AcDbEntity
  8
0
100
AcDbBlockEnd
  0
BLOCK
  5
2EA0
330
2E9F
100
AcDbEntity
  8
0
100
AcDbBlockBegin
  2
*X2
 70
     1
 10
0.0
 20
0.0
 30
0.0
  3
*X2
  1

  4
*X2
  0
LINE
  5
2EA1
330
2E9F
100
AcDbEntity
  8
LC-003-005-----0
 62
     7
370
    25
100
AcDbLine
 10
695.5169999999997
 20
390.599016
 30
0.0
 11
698.3288059999996
 21
387.78721
 31
0.0
  0
LINE
  5
2EA2
330
2E9F
100
AcDbEntity
  8
LC-003-005-----0
 62
     7
370
    25
100
AcDbLine
 10
695.5169999999997
 20
393.427443
 30
0.0
 11
701.1572329999997
 21
387.78721
 31
0.0
  0
LINE
  5
2EA3
330
2E9F
100
AcDbEntity
  8
LC-003-005-----0
 62
     7
370
    25
100
AcDbLine
 10
695.5169999999997
 20
396.25587
 30
0.0
 11
703.9856599999997
 21
387.78721
 31
0.0
  0
LINE
  5
2EA4
330
2E9F
100
AcDbEntity
  8
LC-003-005-----0
 62
     7
370
    25
100
AcDbLine
 10
695.5169999999997
 20
399.084297
 30
0.0
 11
706.8140869999997
 21
387.78721
 31
0.0
  0
LINE
  5
2EA5
330
2E9F
100
AcDbEntity
  8
LC-003-005-----0
 62
     7
370
    25
100
AcDbLine
 10
695.5169999999997
 20
401.912724
 30
0.0
 11
709.642514
 21
387.78721
 31
0.0
  0
LINE
  5
2EA6
330
2E9F
100
AcDbEntity
  8
LC-003-005-----0
 62
     7
370
    25
100
AcDbLine
 10
695.5169999999997
 20
404.7411519999998
 30
0.0
 11
712.470941
 21
387.78721
 31
0.0
  0
LINE
  5
2EA7
330
2E9F
100
AcDbEntity
  8
LC-003-005-----0
 62
     7
370
    25
100
AcDbLine
 10
695.5169999999997
 20
407.569579
 30
0.0
 11
714.5169999999997
 21
388.569579
 31
0.0
  0
LINE
  5
2EA8
330
2E9F
100
AcDbEntity
  8
LC-003-005-----0
 62
     7
370
    25
100
AcDbLine
 10
695.5169999999997
 20
410.398006
 30
0.0
 11
714.5169999999997
 21
391.398006
 31
0.0
  0
LINE
  5
2EA9
330
2E9F
100
AcDbEntity
  8
LC-003-005-----0
 62
     7
370
    25
100
AcDbLine
 10
657.5169999999998
 20
451.2264329999998
 30
0.0
 11
659.1876559999997
 21
449.5557759999998
 31
0.0
  0
LINE
  5
2EAA
330
2E9F
100
AcDbEntity
  8
LC-003-005-----0
 62
     7
370
    25
100
AcDbLine
 10
695.5169999999997
 20
413.2264329999999
 30
0.0
 11
714.5169999999997
 21
394.226433
 31
0.0
  0
LINE
  5
2EAB
330
2E9F
100
AcDbEntity
  8
LC-003-005-----0
 62
     7
370
    25
100
AcDbLine
 10
657.5169999999998
 20
454.05486
 30
0.0
 11
662.0160839999997
 21
449.5557759999998
 31
0.0
  0
LINE
  5
2EAC
330
2E9F
100
AcDbEntity
  8
LC-003-005-----0
 62
     7
370
    25
100
AcDbLine
 10
695.5169999999997
 20
416.05486
 30
0.0
 11
714.5169999999997
 21
397.05486
 31
0.0
  0
LINE
  5
2EAD
330
2E9F
100
AcDbEntity
  8
LC-003-005-----0
 62
     7
370
    25
100
AcDbLine
 10
657.5169999999998
 20
456.883287
 30
0.0
 11
664.8445109999999
 21
449.5557759999998
 31
0.0
  0
LINE
  5
2EAE
330
2E9F
100
AcDbEntity
  8
LC-003-005-----0
 62
     7
370
    25
100
AcDbLine
 10
695.5169999999997
 20
418.8832869999997
 30
0.0
 11
714.5169999999997
 21
399.883287
 31
0.0
  0
LINE
  5
2EAF
330
2E9F
100
AcDbEntity
  8
LC-003-005-----0
 62
     7
370
    25
100
AcDbLine
 10
657.5169999999998
 20
459.7117139999999
 30
0.0
 11
667.672938
 21
449.5557759999998
 31
0.0
  0
LINE
  5
2EB0
330
2E9F
100
AcDbEntity
  8
LC-003-005-----0
 62
     7
370
    25
100
AcDbLine
 10
695.5169999999997
 20
421.711714
 30
0.0
 11
714.5169999999997
 21
402.711714
 31
0.0
  0
LINE
  5
2EB1
330
2E9F
100
AcDbEntity
  8
LC-003-005-----0
 62
     7
370
    25
100
AcDbLine
 10
657.5169999999998
 20
462.540141
 30
0.0
 11
670.501365
 21
449.5557759999998
 31
0.0
  0
LINE
  5
2EB2
330
2E9F
100
AcDbEntity
  8
LC-003-005-----0
 62
     7
370
    25
100
AcDbLine
 10
695.5169999999997
 20
424.540141
 30
0.0
 11
714.5169999999997
 21
405.5401409999998
 31
0.0
  0
LINE
  5
2EB3
330
2E9F
100
AcDbEntity
  8
LC-003-005-----0
 62
     7
370
    25
100
AcDbLine
 10
657.5169999999998
 20
465.368569
 30
0.0
 11
673.329792
 21
449.5557759999998
 31
0.0
  0
LINE
  5
2EB4
330
2E9F
100
AcDbEntity
  8
LC-003-005-----0
 62
     7
370
    25
100
AcDbLine
 10
695.5169999999997
 20
427.368569
 30
0.0
 11
714.5169999999997
 21
408.368569
 31
0.0
  0
LINE
  5
2EB5
330
2E9F
100
AcDbEntity
  8
LC-003-005-----0
 62
     7
370
    25
100
AcDbLine
 10
657.5169999999998
 20
468.1969959999998
 30
0.0
 11
676.158219
 21
449.5557759999998
 31
0.0
  0
LINE
  5
2EB6
330
2E9F
100
AcDbEntity
  8
LC-003-005-----0
 62
     7
370
    25
100
AcDbLine
 10
695.5169999999997
 20
430.196996
 30
0.0
 11
714.5169999999997
 21
411.196996
 31
0.0
  0
LINE
  5
2EB7
330
2E9F
100
AcDbEntity
  8
LC-003-005-----0
 62
     7
370
    25
100
AcDbLine
 10
657.5169999999998
 20
471.025423
 30
0.0
 11
678.9866459999997
 21
449.5557759999998
 31
0.0
  0
LINE
  5
2EB8
330
2E9F
100
AcDbEntity
  8
LC-003-005-----0
 62
     7
370
    25
100
AcDbLine
 10
695.5169999999997
 20
433.025423
 30
0.0
 11
714.5169999999997
 21
414.025423
 31
0.0
  0
LINE
  5
2EB9
330
2E9F
100
AcDbEntity
  8
LC-003-005-----0
 62
     7
370
    25
100
AcDbLine
 10
657.5169999999998
 20
473.85385
 30
0.0
 11
681.8150730000001
 21
449.5557759999998
 31
0.0
  0
LINE
  5
2EBA
330
2E9F
100
AcDbEntity
  8
LC-003-005-----0
 62
     7
370
    25
100
AcDbLine
 10
695.5169999999997
 20
435.85385
 30
0.0
 11
714.5169999999997
 21
416.85385
 31
0.0
  0
LINE
  5
2EBB
330
2E9F
100
AcDbEntity
  8
LC-003-005-----0
 62
     7
370
    25
100
AcDbLine
 10
657.5169999999998
 20
476.6822769999998
 30
0.0
 11
684.643501
 21
449.5557759999998
 31
0.0
  0
LINE
  5
2EBC
330
2E9F
100
AcDbEntity
  8
LC-003-005-----0
 62
     7
370
    25
100
AcDbLine
 10
695.5169999999997
 20
438.6822769999998
 30
0.0
 11
714.5169999999997
 21
419.6822769999998
 31
0.0
  0
LINE
  5
2EBD
330
2E9F
100
AcDbEntity
  8
LC-003-005-----0
 62
     7
370
    25
100
AcDbLine
 10
657.5169999999998
 20
479.5107039999998
 30
0.0
 11
687.471928
 21
449.5557759999998
 31
0.0
  0
LINE
  5
2EBE
330
2E9F
100
AcDbEntity
  8
LC-003-005-----0
 62
     7
370
    25
100
AcDbLine
 10
695.5169999999997
 20
441.5107039999998
 30
0.0
 11
714.5169999999997
 21
422.510704
 31
0.0
  0
LINE
  5
2EBF
330
2E9F
100
AcDbEntity
  8
LC-003-005-----0
 62
     7
370
    25
100
AcDbLine
 10
657.5169999999998
 20
482.3391309999998
 30
0.0
 11
690.300355
 21
449.5557759999998
 31
0.0
  0
LINE
  5
2EC0
330
2E9F
100
AcDbEntity
  8
LC-003-005-----0
 62
     7
370
    25
100
AcDbLine
 10
695.5169999999997
 20
444.3391309999998
 30
0.0
 11
714.5169999999997
 21
425.3391309999998
 31
0.0
  0
LINE
  5
2EC1
330
2E9F
100
AcDbEntity
  8
LC-003-005-----0
 62
     7
370
    25
100
AcDbLine
 10
657.5169999999998
 20
485.167558
 30
0.0
 11
693.128782
 21
449.5557759999998
 31
0.0
  0
LINE
  5
2EC2
330
2E9F
100
AcDbEntity
  8
LC-003-005-----0
 62
     7
370
    25
100
AcDbLine
 10
695.5169999999997
 20
447.167558
 30
0.0
 11
714.5169999999997
 21
428.1675579999999
 31
0.0
  0
LINE
  5
2EC3
330
2E9F
100
AcDbEntity
  8
LC-003-005-----0
 62
     7
370
    25
100
AcDbLine
 10
657.957209
 20
487.5557759999998
 30
0.0
 11
714.5169999999997
 21
430.995986
 31
0.0
  0
LINE
  5
2EC4
330
2E9F
100
AcDbEntity
  8
LC-003-005-----0
 62
     7
370
    25
100
AcDbLine
 10
660.785636
 20
487.5557759999998
 30
0.0
 11
714.5169999999997
 21
433.8244129999998
 31
0.0
  0
LINE
  5
2EC5
330
2E9F
100
AcDbEntity
  8
LC-003-005-----0
 62
     7
370
    25
100
AcDbLine
 10
663.6140629999998
 20
487.5557759999998
 30
0.0
 11
714.5169999999997
 21
436.6528399999999
 31
0.0
  0
LINE
  5
2EC6
330
2E9F
100
AcDbEntity
  8
LC-003-005-----0
 62
     7
370
    25
100
AcDbLine
 10
666.44249
 20
487.5557759999998
 30
0.0
 11
714.5169999999997
 21
439.481267
 31
0.0
  0
LINE
  5
2EC7
330
2E9F
100
AcDbEntity
  8
LC-003-005-----0
 62
     7
370
    25
100
AcDbLine
 10
669.2709179999998
 20
487.5557759999998
 30
0.0
 11
714.5169999999997
 21
442.309694
 31
0.0
  0
LINE
  5
2EC8
330
2E9F
100
AcDbEntity
  8
LC-003-005-----0
 62
     7
370
    25
100
AcDbLine
 10
672.0993449999999
 20
487.5557759999998
 30
0.0
 11
714.5169999999997
 21
445.138121
 31
0.0
  0
LINE
  5
2EC9
330
2E9F
100
AcDbEntity
  8
LC-003-005-----0
 62
     7
370
    25
100
AcDbLine
 10
674.927772
 20
487.5557759999998
 30
0.0
 11
714.5169999999997
 21
447.966548
 31
0.0
  0
LINE
  5
2ECA
330
2E9F
100
AcDbEntity
  8
LC-003-005-----0
 62
     7
370
    25
100
AcDbLine
 10
677.756199
 20
487.5557759999998
 30
0.0
 11
715.756199
 21
449.5557759999998
 31
0.0
  0
LINE
  5
2ECB
330
2E9F
100
AcDbEntity
  8
LC-003-005-----0
 62
     7
370
    25
100
AcDbLine
 10
680.584626
 20
487.5557759999998
 30
0.0
 11
718.5846259999997
 21
449.5557759999998
 31
0.0
  0
LINE
  5
2ECC
330
2E9F
100
AcDbEntity
  8
LC-003-005-----0
 62
     7
370
    25
100
AcDbLine
 10
683.413053
 20
487.5557759999998
 30
0.0
 11
721.413053
 21
449.5557759999998
 31
0.0
  0
LINE
  5
2ECD
330
2E9F
100
AcDbEntity
  8
LC-003-005-----0
 62
     7
370
    25
100
AcDbLine
 10
686.24148
 20
487.5557759999998
 30
0.0
 11
724.24148
 21
449.5557759999998
 31
0.0
  0
LINE
  5
2ECE
330
2E9F
100
AcDbEntity
  8
LC-003-005-----0
 62
     7
370
    25
100
AcDbLine
 10
689.0699070000001
 20
487.5557759999998
 30
0.0
 11
727.069907
 21
449.5557759999998
 31
0.0
  0
LINE
  5
2ECF
330
2E9F
100
AcDbEntity
  8
LC-003-005-----0
 62
     7
370
    25
100
AcDbLine
 10
691.8983349999997
 20
487.5557759999998
 30
0.0
 11
728.1968879999997
 21
451.257223
 31
0.0
  0
LINE
  5
2ED0
330
2E9F
100
AcDbEntity
  8
LC-003-005-----0
 62
     7
370
    25
100
AcDbLine
 10
694.7267619999997
 20
487.5557759999998
 30
0.0
 11
728.779662
 21
453.5028759999998
 31
0.0
  0
LINE
  5
2ED1
330
2E9F
100
AcDbEntity
  8
LC-003-005-----0
 62
     7
370
    25
100
AcDbLine
 10
697.5551889999997
 20
487.5557759999998
 30
0.0
 11
729.3624359999999
 21
455.748529
 31
0.0
  0
LINE
  5
2ED2
330
2E9F
100
AcDbEntity
  8
LC-003-005-----0
 62
     7
370
    25
100
AcDbLine
 10
700.3836159999997
 20
487.5557759999998
 30
0.0
 11
729.9452099999997
 21
457.994182
 31
0.0
  0
LINE
  5
2ED3
330
2E9F
100
AcDbEntity
  8
LC-003-005-----0
 62
     7
370
    25
100
AcDbLine
 10
703.2120429999999
 20
487.5557759999998
 30
0.0
 11
730.5279839999997
 21
460.2398349999998
 31
0.0
  0
LINE
  5
2ED4
330
2E9F
100
AcDbEntity
  8
LC-003-005-----0
 62
     7
370
    25
100
AcDbLine
 10
706.04047
 20
487.5557759999998
 30
0.0
 11
731.110759
 21
462.485488
 31
0.0
  0
LINE
  5
2ED5
330
2E9F
100
AcDbEntity
  8
LC-003-005-----0
 62
     7
370
    25
100
AcDbLine
 10
708.8688969999997
 20
487.5557759999998
 30
0.0
 11
731.6935329999997
 21
464.731141
 31
0.0
  0
LINE
  5
2ED6
330
2E9F
100
AcDbEntity
  8
LC-003-005-----0
 62
     7
370
    25
100
AcDbLine
 10
711.697324
 20
487.5557759999998
 30
0.0
 11
732.257448
 21
466.995653
 31
0.0
  0
LINE
  5
2ED7
330
2E9F
100
AcDbEntity
  8
LC-003-005-----0
 62
     7
370
    25
100
AcDbLine
 10
714.525752
 20
487.5557759999998
 30
0.0
 11
731.4644559999996
 21
470.6170719999998
 31
0.0
  0
LINE
  5
2ED8
330
2E9F
100
AcDbEntity
  8
LC-003-005-----0
 62
     7
370
    25
100
AcDbLine
 10
717.354179
 20
487.5557759999998
 30
0.0
 11
730.671464
 21
474.238491
 31
0.0
  0
LINE
  5
2ED9
330
2E9F
100
AcDbEntity
  8
LC-003-005-----0
 62
     7
370
    25
100
AcDbLine
 10
720.182606
 20
487.5557759999998
 30
0.0
 11
729.878472
 21
477.85991
 31
0.0
  0
LINE
  5
2EDA
330
2E9F
100
AcDbEntity
  8
LC-003-005-----0
 62
     7
370
    25
100
AcDbLine
 10
723.011033
 20
487.5557759999998
 30
0.0
 11
729.0854799999997
 21
481.4813299999998
 31
0.0
  0
LINE
  5
2EDB
330
2E9F
100
AcDbEntity
  8
LC-003-005-----0
 62
     7
370
    25
100
AcDbLine
 10
725.8394599999997
 20
487.5557759999998
 30
0.0
 11
728.292487
 21
485.1027489999998
 31
0.0
  0
ENDBLK
  5
2EDC
330
2E9F
100
AcDbEntity
  8
0
100
AcDbBlockEnd
  0
BLOCK
  5
2F2E
330
2F24
100
AcDbEntity
  8
0
100
AcDbBlockBegin
  2
*D3
 70
     1
 10
0.0
 20
0.0
 30
0.0
  3
*D3
  1

  0
LINE
  5
2F25
330
2F24
100
AcDbEntity
  8
0
 62
     0
370
    -2
100
AcDbLine
 10
1202.425817883089
 20
1279.427787142855
 30
0.0
 11
1204.883587930657
 21
1279.427787142855
 31
0.0
  0
LINE
  5
2F26
330
2F24
100
AcDbEntity
  8
0
 62
     0
370
    -2
100
AcDbLine
 10
1202.425817883089
 20
1296.238777142855
 30
0.0
 11
1204.883587930657
 21
1296.238777142855
 31
0.0
  0
LINE
  5
2F27
330
2F24
100
AcDbEntity
  8
0
 62
     0
370
    -2
100
AcDbLine
 10
1204.683587930657
 20
1279.627787142855
 30
0.0
 11
1204.683587930657
 21
1296.038777142855
 31
0.0
  0
SOLID
  5
2F28
330
2F24
100
AcDbEntity
  8
0
 62
     0
100
AcDbTrace
 10
1204.650254597324
 20
1279.627787142855
 30
0.0
 11
1204.71692126399
 21
1279.627787142855
 31
0.0
 12
1204.683587930657
 22
1279.427787142855
 32
0.0
 13
1204.683587930657
 23
1279.427787142855
 33
0.0
  0
SOLID
  5
2F29
330
2F24
100
AcDbEntity
  8
0
 62
     0
100
AcDbTrace
 10
1204.650254597324
 20
1296.038777142855
 30
0.0
 11
1204.71692126399
 21
1296.038777142855
 31
0.0
 12
1204.683587930657
 22
1296.238777142855
 32
0.0
 13
1204.683587930657
 23
1296.238777142855
 33
0.0
  0
MTEXT
  5
2F2A
330
2F24
100
AcDbEntity
  8
0
 62
     0
100
AcDbMText
 10
1204.436737930657
 20
1287.833282142855
 30
0.0
 40
0.3937
 41
0.0
 71
     5
 72
     1
  1
\A1;16.811
  7
\U+C2A4\U+D0C0\U+C77C2
 11
0.0000000000000001
 21
1.0
 31
0.0
 73
     1
 44
1.0
  0
POINT
  5
2F2B
330
2F24
100
AcDbEntity
  8
Defpoints
 62
     0
100
AcDbPoint
 10
1202.325817883089
 20
1279.427787142855
 30
0.0
  0
POINT
  5
2F2C
330
2F24
100
AcDbEntity
  8
Defpoints
 62
     0
100
AcDbPoint
 10
1202.325817883089
 20
1296.238777142855
 30
0.0
  0
POINT
  5
2F2D
330
2F24
100
AcDbEntity
  8
Defpoints
 62
     0
100
AcDbPoint
 10
1204.683587930657
 20
1296.238777142855
 30
0.0
  0
ENDBLK
  5
2F2F
330
2F24
100
AcDbEntity
  8
0
100
AcDbBlockEnd
  0
BLOCK
  5
2F3B
330
2F31
100
AcDbEntity
  8
0
100
AcDbBlockBegin
  2
*D4
 70
     1
 10
0.0
 20
0.0
 30
0.0
  3
*D4
  1

  0
LINE
  5
2F32
330
2F31
100
AcDbEntity
  8
0
 62
     0
370
    -2
100
AcDbLine
 10
1172.483357883089
 20
1297.244287142855
 30
0.0
 11
1172.483357883089
 21
1299.539675172809
 31
0.0
  0
LINE
  5
2F33
330
2F31
100
AcDbEntity
  8
0
 62
     0
370
    -2
100
AcDbLine
 10
1187.758917883089
 20
1297.244287142855
 30
0.0
 11
1187.758917883089
 21
1299.539675172809
 31
0.0
  0
LINE
  5
2F34
330
2F31
100
AcDbEntity
  8
0
 62
     0
370
    -2
100
AcDbLine
 10
1172.683357883089
 20
1299.339675172809
 30
0.0
 11
1187.558917883089
 21
1299.339675172809
 31
0.0
  0
SOLID
  5
2F35
330
2F31
100
AcDbEntity
  8
0
 62
     0
100
AcDbTrace
 10
1172.683357883089
 20
1299.373008506142
 30
0.0
 11
1172.683357883089
 21
1299.306341839475
 31
0.0
 12
1172.483357883089
 22
1299.339675172809
 32
0.0
 13
1172.483357883089
 23
1299.339675172809
 33
0.0
  0
SOLID
  5
2F36
330
2F31
100
AcDbEntity
  8
0
 62
     0
100
AcDbTrace
 10
1187.558917883089
 20
1299.373008506142
 30
0.0
 11
1187.558917883089
 21
1299.306341839475
 31
0.0
 12
1187.758917883089
 22
1299.339675172809
 32
0.0
 13
1187.758917883089
 23
1299.339675172809
 33
0.0
  0
MTEXT
  5
2F37
330
2F31
100
AcDbEntity
  8
0
 62
     0
100
AcDbMText
 10
1180.121137883089
 20
1299.586525172809
 30
0.0
 40
0.3937
 41
0.0
 71
     5
 72
     1
  1
\A1;15.2756
  7
\U+C2A4\U+D0C0\U+C77C2
 73
     1
 44
1.0
  0
POINT
  5
2F38
330
2F31
100
AcDbEntity
  8
Defpoints
 62
     0
100
AcDbPoint
 10
1172.483357883089
 20
1297.144287142855
 30
0.0
  0
POINT
  5
2F39
330
2F31
100
AcDbEntity
  8
Defpoints
 62
     0
100
AcDbPoint
 10
1187.758917883089
 20
1297.144287142855
 30
0.0
  0
POINT
  5
2F3A
330
2F31
100
AcDbEntity
  8
Defpoints
 62
     0
100
AcDbPoint
 10
1187.758917883089
 20
1299.339675172809
 30
0.0
  0
ENDBLK
  5
2F3C
330
2F31
100
AcDbEntity
  8
0
100
AcDbBlockEnd
  0
BLOCK
  5
2F48
330
2F3E
100
AcDbEntity
  8
0
100
AcDbBlockBegin
  2
*D5
 70
     1
 10
0.0
 20
0.0
 30
0.0
  3
*D5
  1

  0
LINE
  5
2F3F
330
2F3E
100
AcDbEntity
  8
0
 62
     0
370
    -2
100
AcDbLine
 10
1187.758917883089
 20
1297.244287142855
 30
0.0
 11
1187.758917883089
 21
1299.539675172809
 31
0.0
  0
LINE
  5
2F40
330
2F3E
100
AcDbEntity
  8
0
 62
     0
370
    -2
100
AcDbLine
 10
1203.428177883089
 20
1295.236417142855
 30
0.0
 11
1203.428177883089
 21
1299.539675172809
 31
0.0
  0
LINE
  5
2F41
330
2F3E
100
AcDbEntity
  8
0
 62
     0
370
    -2
100
AcDbLine
 10
1187.958917883089
 20
1299.339675172809
 30
0.0
 11
1203.228177883089
 21
1299.339675172809
 31
0.0
  0
SOLID
  5
2F42
330
2F3E
100
AcDbEntity
  8
0
 62
     0
100
AcDbTrace
 10
1187.958917883089
 20
1299.373008506142
 30
0.0
 11
1187.958917883089
 21
1299.306341839475
 31
0.0
 12
1187.758917883089
 22
1299.339675172809
 32
0.0
 13
1187.758917883089
 23
1299.339675172809
 33
0.0
  0
SOLID
  5
2F43
330
2F3E
100
AcDbEntity
  8
0
 62
     0
100
AcDbTrace
 10
1203.228177883089
 20
1299.373008506142
 30
0.0
 11
1203.228177883089
 21
1299.306341839475
 31
0.0
 12
1203.428177883089
 22
1299.339675172809
 32
0.0
 13
1203.428177883089
 23
1299.339675172809
 33
0.0
  0
MTEXT
  5
2F44
330
2F3E
100
AcDbEntity
  8
0
 62
     0
100
AcDbMText
 10
1195.593547883089
 20
1299.586525172809
 30
0.0
 40
0.3937
 41
0.0
 71
     5
 72
     1
  1
\A1;15.6693
  7
\U+C2A4\U+D0C0\U+C77C2
 73
     1
 44
1.0
  0
POINT
  5
2F45
330
2F3E
100
AcDbEntity
  8
Defpoints
 62
     0
100
AcDbPoint
 10
1187.758917883089
 20
1297.144287142855
 30
0.0
  0
POINT
  5
2F46
330
2F3E
100
AcDbEntity
  8
Defpoints
 62
     0
100
AcDbPoint
 10
1203.428177883089
 20
1295.136417142855
 30
0.0
  0
POINT
  5
2F47
330
2F3E
100
AcDbEntity
  8
Defpoints
 62
     0
100
AcDbPoint
 10
1203.428177883089
 20
1299.339675172809
 30
0.0
  0
ENDBLK
  5
2F49
330
2F3E
100
AcDbEntity
  8
0
100
AcDbBlockEnd
  0
BLOCK
  5
2F51
330
2F4B
100
AcDbEntity
  8
0
100
AcDbBlockBegin
  2
*D6
 70
     1
 10
0.0
 20
0.0
 30
0.0
  3
*D6
  1

  0
LINE
  5
2F4C
330
2F4B
100
AcDbEntity
  8
0
 62
     0
370
    -2
100
AcDbLine
 10
1184.957013262455
 20
1295.2449897968
 30
0.0
 11
1187.258280970492
 21
1297.816732602119
 31
0.0
  0
MTEXT
  5
2F4D
330
2F4B
100
AcDbEntity
  8
0
 62
     0
100
AcDbMText
 10
1185.484608095064
 20
1296.20477732633
 30
0.0
 40
0.3937
 41
0.0
 71
     5
 72
     1
  1
\A1;R1.1024
  7
\U+C2A4\U+D0C0\U+C77C2
 11
0.6668326248979688
 21
0.7452075216821721
 31
0.0
 73
     1
 44
1.0
  0
SOLID
  5
2F4E
330
2F4B
100
AcDbEntity
  8
0
 62
     0
100
AcDbTrace
 10
1187.233440719769
 20
1297.838960356283
 30
0.0
 11
1187.283121221215
 21
1297.794504847956
 31
0.0
 12
1187.391647495472
 22
1297.965774106456
 32
0.0
 13
1187.391647495472
 23
1297.965774106456
 33
0.0
  0
POINT
  5
2F4F
330
2F4B
100
AcDbEntity
  8
Defpoints
 62
     0
100
AcDbPoint
 10
1187.391647495472
 20
1297.965774106456
 30
0.0
  0
POINT
  5
2F50
330
2F4B
100
AcDbEntity
  8
Defpoints
 62
     0
100
AcDbPoint
 10
1186.656557883089
 20
1297.144287142854
 30
0.0
  0
ENDBLK
  5
2F52
330
2F4B
100
AcDbEntity
  8
0
100
AcDbBlockEnd
  0
BLOCK
  5
2F5A
330
2F54
100
AcDbEntity
  8
0
100
AcDbBlockBegin
  2
*D7
 70
     1
 10
0.0
 20
0.0
 30
0.0
  3
*D7
  1

  0
LINE
  5
2F55
330
2F54
100
AcDbEntity
  8
0
 62
     0
370
    -2
100
AcDbLine
 10
1174.007735569086
 20
1295.776139407685
 30
0.0
 11
1173.319742603907
 21
1298.006557819884
 31
0.0
  0
MTEXT
  5
2F56
330
2F54
100
AcDbEntity
  8
0
 62
     0
100
AcDbMText
 10
1173.929097751046
 20
1296.868551648009
 30
0.0
 40
0.3937
 41
0.0
 71
     5
 72
     1
  1
\A1;R1.1024
  7
\U+C2A4\U+D0C0\U+C77C2
 11
0.2947551744107976
 21
-0.9555728057861736
 31
0.0
 73
     1
 44
1.0
  0
SOLID
  5
2F57
330
2F54
100
AcDbEntity
  8
0
 62
     0
100
AcDbTrace
 10
1173.351595030767
 20
1298.016382992364
 30
0.0
 11
1173.287890177048
 21
1297.996732647404
 31
0.0
 12
1173.260791569025
 22
1298.197672381041
 32
0.0
 13
1173.260791569025
 23
1298.197672381041
 33
0.0
  0
POINT
  5
2F58
330
2F54
100
AcDbEntity
  8
Defpoints
 62
     0
100
AcDbPoint
 10
1173.260791569025
 20
1298.197672381041
 30
0.0
  0
POINT
  5
2F59
330
2F54
100
AcDbEntity
  8
Defpoints
 62
     0
100
AcDbPoint
 10
1173.585717883089
 20
1297.144287142854
 30
0.0
  0
ENDBLK
  5
2F5B
330
2F54
100
AcDbEntity
  8
0
100
AcDbBlockEnd
  0
BLOCK
  5
2F63
330
2F5D
100
AcDbEntity
  8
0
100
AcDbBlockBegin
  2
*D8
 70
     1
 10
0.0
 20
0.0
 30
0.0
  3
*D8
  1

  0
LINE
  5
2F5E
330
2F5D
100
AcDbEntity
  8
0
 62
     0
370
    -2
100
AcDbLine
 10
1174.598122731099
 20
1281.542551990863
 30
0.0
 11
1172.947653008018
 21
1279.892082267783
 31
0.0
  0
MTEXT
  5
2F5F
330
2F5D
100
AcDbEntity
  8
0
 62
     0
100
AcDbMText
 10
1173.669049238741
 20
1280.962577116378
 30
0.0
 40
0.3937
 41
0.0
 71
     5
 72
     1
  1
\A1;R1.1024
  7
\U+C2A4\U+D0C0\U+C77C2
 11
0.7071067811867539
 21
0.7071067811863414
 31
0.0
 73
     1
 44
1.0
  0
SOLID
  5
2F60
330
2F5D
100
AcDbEntity
  8
0
 62
     0
100
AcDbTrace
 10
1172.924082781978
 20
1279.915652493823
 30
0.0
 11
1172.971223234057
 21
1279.868512041744
 31
0.0
 12
1172.80623165178
 22
1279.750660911546
 32
0.0
 13
1172.80623165178
 23
1279.750660911546
 33
0.0
  0
POINT
  5
2F61
330
2F5D
100
AcDbEntity
  8
Defpoints
 62
     0
100
AcDbPoint
 10
1172.80623165178
 20
1279.750660911546
 30
0.0
  0
POINT
  5
2F62
330
2F5D
100
AcDbEntity
  8
Defpoints
 62
     0
100
AcDbPoint
 10
1173.585717883089
 20
1280.530147142854
 30
0.0
  0
ENDBLK
  5
2F64
330
2F5D
100
AcDbEntity
  8
0
100
AcDbBlockEnd
  0
BLOCK
  5
2F6D
330
2F66
100
AcDbEntity
  8
0
100
AcDbBlockBegin
  2
*D9
 70
     1
 10
0.0
 20
0.0
 30
0.0
  3
*D9
  1

  0
LINE
  5
2F67
330
2F66
100
AcDbEntity
  8
0
 62
     0
370
    -2
100
AcDbLine
 10
1204.897195193713
 20
1277.958769832225
 30
0.0
 11
1203.246725470635
 21
1279.609239555308
 31
0.0
  0
MTEXT
  5
2F68
330
2F66
100
AcDbEntity
  8
0
 62
     0
100
AcDbMText
 10
1204.317220319228
 20
1278.887843324584
 30
0.0
 40
0.3937
 41
0.0
 71
     5
 72
     1
  1
\A1;R1.1024
  7
\U+C2A4\U+D0C0\U+C77C2
 11
0.7071067811854129
 21
-0.7071067811876823
 31
0.0
 73
     1
 44
1.0
  0
LINE
  5
2F69
330
2F66
100
AcDbEntity
  8
0
 62
     0
370
    -2
100
AcDbLine
 10
1202.32581788309
 20
1280.530147142856
 30
0.0
 11
1203.105304114397
 21
1279.750660911546
 31
0.0
  0
SOLID
  5
2F6A
330
2F66
100
AcDbEntity
  8
0
 62
     0
100
AcDbTrace
 10
1203.270295696674
 20
1279.632809781348
 30
0.0
 11
1203.223155244595
 21
1279.585669329269
 31
0.0
 12
1203.105304114397
 22
1279.750660911546
 32
0.0
 13
1203.105304114397
 23
1279.750660911546
 33
0.0
  0
POINT
  5
2F6B
330
2F66
100
AcDbEntity
  8
Defpoints
 62
     0
100
AcDbPoint
 10
1203.105304114397
 20
1279.750660911546
 30
0.0
  0
POINT
  5
2F6C
330
2F66
100
AcDbEntity
  8
Defpoints
 62
     0
100
AcDbPoint
 10
1202.32581788309
 20
1280.530147142856
 30
0.0
  0
ENDBLK
  5
2F6E
330
2F66
100
AcDbEntity
  8
0
100
AcDbBlockEnd
  0
BLOCK
  5
2F76
330
2F70
100
AcDbEntity
  8
0
100
AcDbBlockBegin
  2
*D10
 70
     1
 10
0.0
 20
0.0
 30
0.0
  3
*D10
  1

  0
LINE
  5
2F71
330
2F70
100
AcDbEntity
  8
0
 62
     0
370
    -2
100
AcDbLine
 10
1200.961856087946
 20
1293.929972024282
 30
0.0
 11
1203.001715980662
 21
1295.73425937229
 31
0.0
  0
MTEXT
  5
2F72
330
2F70
100
AcDbEntity
  8
0
 62
     0
100
AcDbMText
 10
1201.597572812052
 20
1294.82183112522
 30
0.0
 40
0.3937
 41
0.0
 71
     5
 72
     1
  1
\A1;R1.1024
  7
\U+C2A4\U+D0C0\U+C77C2
 11
0.7490337532405241
 21
0.6625318381077349
 31
0.0
 73
     1
 44
1.0
  0
SOLID
  5
2F73
330
2F70
100
AcDbEntity
  8
0
 62
     0
100
AcDbTrace
 10
1202.979631586059
 20
1295.759227164065
 30
0.0
 11
1203.023800375266
 21
1295.709291580516
 31
0.0
 12
1203.15152273131
 22
1295.866765739912
 32
0.0
 13
1203.15152273131
 23
1295.866765739912
 33
0.0
  0
POINT
  5
2F74
330
2F70
100
AcDbEntity
  8
Defpoints
 62
     0
100
AcDbPoint
 10
1203.15152273131
 20
1295.866765739912
 30
0.0
  0
POINT
  5
2F75
330
2F70
100
AcDbEntity
  8
Defpoints
 62
     0
100
AcDbPoint
 10
1202.325817883084
 20
1295.136417142851
 30
0.0
  0
ENDBLK
  5
2F77
330
2F70
100
AcDbEntity
  8
0
100
AcDbBlockEnd
  0
BLOCK
  5
2F83
330
2F79
100
AcDbEntity
  8
0
100
AcDbBlockBegin
  2
*D11
 70
     1
 10
0.0
 20
0.0
 30
0.0
  3
*D11
  1

  0
LINE
  5
2F7A
330
2F79
100
AcDbEntity
  8
0
 62
     0
370
    -2
100
AcDbLine
 10
1173.485717883089
 20
1298.246647142855
 30
0.0
 11
1171.235758925615
 21
1298.246647142855
 31
0.0
  0
LINE
  5
2F7B
330
2F79
100
AcDbEntity
  8
0
 62
     0
370
    -2
100
AcDbLine
 10
1173.485717883089
 20
1279.427787142855
 30
0.0
 11
1171.235758925615
 21
1279.427787142855
 31
0.0
  0
LINE
  5
2F7C
330
2F79
100
AcDbEntity
  8
0
 62
     0
370
    -2
100
AcDbLine
 10
1171.435758925615
 20
1298.046647142855
 30
0.0
 11
1171.435758925615
 21
1279.627787142855
 31
0.0
  0
SOLID
  5
2F7D
330
2F79
100
AcDbEntity
  8
0
 62
     0
100
AcDbTrace
 10
1171.402425592282
 20
1298.046647142855
 30
0.0
 11
1171.469092258948
 21
1298.046647142855
 31
0.0
 12
1171.435758925615
 22
1298.246647142855
 32
0.0
 13
1171.435758925615
 23
1298.246647142855
 33
0.0
  0
SOLID
  5
2F7E
330
2F79
100
AcDbEntity
  8
0
 62
     0
100
AcDbTrace
 10
1171.402425592282
 20
1279.627787142855
 30
0.0
 11
1171.469092258948
 21
1279.627787142855
 31
0.0
 12
1171.435758925615
 22
1279.427787142855
 32
0.0
 13
1171.435758925615
 23
1279.427787142855
 33
0.0
  0
MTEXT
  5
2F7F
330
2F79
100
AcDbEntity
  8
0
 62
     0
100
AcDbMText
 10
1171.188908925615
 20
1288.837217142855
 30
0.0
 40
0.3937
 41
0.0
 71
     5
 72
     1
  1
\A1;18.8189
  7
\U+C2A4\U+D0C0\U+C77C2
 11
0.0000000000000001
 21
1.0
 31
0.0
 73
     1
 44
1.0
  0
POINT
  5
2F80
330
2F79
100
AcDbEntity
  8
Defpoints
 62
     0
100
AcDbPoint
 10
1173.585717883089
 20
1298.246647142855
 30
0.0
  0
POINT
  5
2F81
330
2F79
100
AcDbEntity
  8
Defpoints
 62
     0
100
AcDbPoint
 10
1173.585717883089
 20
1279.427787142855
 30
0.0
  0
POINT
  5
2F82
330
2F79
100
AcDbEntity
  8
Defpoints
 62
     0
100
AcDbPoint
 10
1171.435758925615
 20
1279.427787142855
 30
0.0
  0
ENDBLK
  5
2F84
330
2F79
100
AcDbEntity
  8
0
100
AcDbBlockEnd
  0
BLOCK
  5
2F90
330
2F86
100
AcDbEntity
  8
0
100
AcDbBlockBegin
  2
*D12
 70
     1
 10
0.0
 20
0.0
 30
0.0
  3
*D12
  1

  0
LINE
  5
2F87
330
2F86
100
AcDbEntity
  8
0
 62
     0
370
    -2
100
AcDbLine
 10
1172.483357883089
 20
1280.430147142855
 30
0.0
 11
1172.483357883089
 21
1278.053180985248
 31
0.0
  0
LINE
  5
2F88
330
2F86
100
AcDbEntity
  8
0
 62
     0
370
    -2
100
AcDbLine
 10
1203.428177883089
 20
1280.430147142855
 30
0.0
 11
1203.428177883089
 21
1278.053180985248
 31
0.0
  0
LINE
  5
2F89
330
2F86
100
AcDbEntity
  8
0
 62
     0
370
    -2
100
AcDbLine
 10
1172.683357883089
 20
1278.253180985248
 30
0.0
 11
1203.228177883089
 21
1278.253180985248
 31
0.0
  0
SOLID
  5
2F8A
330
2F86
100
AcDbEntity
  8
0
 62
     0
100
AcDbTrace
 10
1172.683357883089
 20
1278.286514318581
 30
0.0
 11
1172.683357883089
 21
1278.219847651914
 31
0.0
 12
1172.483357883089
 22
1278.253180985248
 32
0.0
 13
1172.483357883089
 23
1278.253180985248
 33
0.0
  0
SOLID
  5
2F8B
330
2F86
100
AcDbEntity
  8
0
 62
     0
100
AcDbTrace
 10
1203.228177883089
 20
1278.286514318581
 30
0.0
 11
1203.228177883089
 21
1278.219847651914
 31
0.0
 12
1203.428177883089
 22
1278.253180985248
 32
0.0
 13
1203.428177883089
 23
1278.253180985248
 33
0.0
  0
MTEXT
  5
2F8C
330
2F86
100
AcDbEntity
  8
0
 62
     0
100
AcDbMText
 10
1187.955767883089
 20
1278.500030985248
 30
0.0
 40
0.3937
 41
0.0
 71
     5
 72
     1
  1
\A1;30.9448
  7
\U+C2A4\U+D0C0\U+C77C2
 73
     1
 44
1.0
  0
POINT
  5
2F8D
330
2F86
100
AcDbEntity
  8
Defpoints
 62
     0
100
AcDbPoint
 10
1172.483357883089
 20
1280.530147142855
 30
0.0
  0
POINT
  5
2F8E
330
2F86
100
AcDbEntity
  8
Defpoints
 62
     0
100
AcDbPoint
 10
1203.428177883089
 20
1280.530147142855
 30
0.0
  0
POINT
  5
2F8F
330
2F86
100
AcDbEntity
  8
Defpoints
 62
     0
100
AcDbPoint
 10
1203.428177883089
 20
1278.253180985248
 30
0.0
  0
ENDBLK
  5
2F91
330
2F86
100
AcDbEntity
  8
0
100
AcDbBlockEnd
  0
BLOCK
  5
2F99
330
2F93
100
AcDbEntity
  8
0
100
AcDbBlockBegin
  2
*D13
 70
     1
 10
0.0
 20
0.0
 30
0.0
  3
*D13
  1

  0
LINE
  5
2F94
330
2F93
100
AcDbEntity
  8
0
 62
     0
370
    -2
100
AcDbLine
 10
1190.26895192341
 20
1298.937860785996
 30
0.0
 11
1188.112953612957
 21
1296.560435370337
 31
0.0
  0
MTEXT
  5
2F95
330
2F93
100
AcDbEntity
  8
0
 62
     0
100
AcDbMText
 10
1189.281120373993
 20
1298.216039013758
 30
0.0
 40
0.3937
 41
0.0
 71
     5
 72
     1
  1
\A1;R0.6693
  7
\U+C2A4\U+D0C0\U+C77C2
 11
0.6717685655609152
 21
0.7407610912596791
 31
0.0
 73
     1
 44
1.0
  0
SOLID
  5
2F96
330
2F93
100
AcDbEntity
  8
0
 62
     0
100
AcDbTrace
 10
1188.088261576582
 20
1296.582827655856
 30
0.0
 11
1188.137645649333
 21
1296.538043084819
 31
0.0
 12
1187.978599899845
 22
1296.412283152085
 32
0.0
 13
1187.978599899845
 23
1296.412283152085
 33
0.0
  0
POINT
  5
2F97
330
2F93
100
AcDbEntity
  8
Defpoints
 62
     0
100
AcDbPoint
 10
1187.978599899845
 20
1296.412283152085
 30
0.0
  0
POINT
  5
2F98
330
2F93
100
AcDbEntity
  8
Defpoints
 62
     0
100
AcDbPoint
 10
1188.428207883088
 20
1296.908067142853
 30
0.0
  0
ENDBLK
  5
2F9A
330
2F93
100
AcDbEntity
  8
0
100
AcDbBlockEnd
  0
BLOCK
  5
2FA9
330
2F9D
100
AcDbEntity
  8
0
100
AcDbBlockBegin
  2
*D14
 70
     1
 10
0.0
 20
0.0
 30
0.0
  3
*D14
  1

  0
LINE
  5
2F9E
330
2F9D
100
AcDbEntity
  8
0
 62
     0
370
    -2
100
AcDbLine
 10
1190.31296787508
 20
1288.297885823095
 30
0.0
 11
1190.31296787508
 21
1290.339525059865
 31
0.0
  0
LINE
  5
2F9F
330
2F9D
100
AcDbEntity
  8
0
 62
     0
370
    -2
100
AcDbLine
 10
1190.623990893089
 20
1289.793945823095
 30
0.0
 11
1190.623990893089
 21
1290.339525059865
 31
0.0
  0
LINE
  5
2FA0
330
2F9D
100
AcDbEntity
  8
0
 62
     0
370
    -2
100
AcDbLine
 10
1190.11296787508
 20
1290.139525059865
 30
0.0
 11
1189.91296787508
 21
1290.139525059865
 31
0.0
  0
LINE
  5
2FA1
330
2F9D
100
AcDbEntity
  8
0
 62
     0
370
    -2
100
AcDbLine
 10
1190.823990893089
 20
1290.139525059865
 30
0.0
 11
1192.370707559756
 21
1290.139525059865
 31
0.0
  0
LINE
  5
2FA2
330
2F9D
100
AcDbEntity
  8
0
 62
     0
370
    -2
100
AcDbLine
 10
1190.31296787508
 20
1290.139525059865
 30
0.0
 11
1190.623990893089
 21
1290.139525059865
 31
0.0
  0
SOLID
  5
2FA3
330
2F9D
100
AcDbEntity
  8
0
 62
     0
100
AcDbTrace
 10
1190.11296787508
 20
1290.172858393198
 30
0.0
 11
1190.11296787508
 21
1290.106191726531
 31
0.0
 12
1190.31296787508
 22
1290.139525059865
 32
0.0
 13
1190.31296787508
 23
1290.139525059865
 33
0.0
  0
SOLID
  5
2FA4
330
2F9D
100
AcDbEntity
  8
0
 62
     0
100
AcDbTrace
 10
1190.823990893089
 20
1290.172858393198
 30
0.0
 11
1190.823990893089
 21
1290.106191726531
 31
0.0
 12
1190.623990893089
 22
1290.139525059865
 32
0.0
 13
1190.623990893089
 23
1290.139525059865
 33
0.0
  0
MTEXT
  5
2FA5
330
2F9D
100
AcDbEntity
  8
0
 62
     0
100
AcDbMText
 10
1191.697349226422
 20
1290.386375059864
 30
0.0
 40
0.3937
 41
0.0
 71
     5
 72
     1
  1
\A1;0.311
  7
\U+C2A4\U+D0C0\U+C77C2
 73
     1
 44
1.0
  0
POINT
  5
2FA6
330
2F9D
100
AcDbEntity
  8
Defpoints
 62
     0
100
AcDbPoint
 10
1190.31296787508
 20
1288.197885823095
 30
0.0
  0
POINT
  5
2FA7
330
2F9D
100
AcDbEntity
  8
Defpoints
 62
     0
100
AcDbPoint
 10
1190.623990893089
 20
1289.693945823095
 30
0.0
  0
POINT
  5
2FA8
330
2F9D
100
AcDbEntity
  8
Defpoints
 62
     0
100
AcDbPoint
 10
1190.623990893089
 20
1290.139525059865
 30
0.0
  0
ENDBLK
  5
2FAA
330
2F9D
100
AcDbEntity
  8
0
100
AcDbBlockEnd
  0
ENDSEC
  0
SECTION
  2
ENTITIES
  0
POINT
  5
37C
330
2
100
AcDbEntity
  8
0
 60
     1
100
AcDbPoint
 10
170.4737662487822
 20
-90.83440570086338
 30
0.0
1001
GENIUS_GENOBJ-N-TIT_13
1002
{
1000
OWNER
1000
GEN
1002
}
1001
GENIUS_GENOENT_13
1002
{
1000
MYREF
1005
37C
1002
}
1002
{
1000
GRP
1005
0
1002
}
1001
GENIUS_GENOLIS_13
1002
{
1000
ENT
1005
0
1005
0
1002
}
1001
GENIUS_GENTITLE_13
1002
{
1000
SCALE
1000
1:1
1002
}
1002
{
1000
BORDER
1000
GEN_A1
1002
}
1002
{
1000
TITLE
1000
GENTITLE
1002
}
1002
{
1000
UNCHG
1002
{
1000
GEN-TITLE-SCA
1000
GEN-TITLE-SIZ
1002
}
1002
}
1002
{
1000
HRA
1005
0
1002
}
1002
{
1000
HTIT
1005
0
1002
}
1002
{
1000
GENIUSID
1005
37C
1002
}
1001
GENIUS_GENODEF_13
1002
{
1000
HIER
1070
     1
1002
}
1002
{
1000
MANEDIT
1070
     0
1002
}
1002
{
1000
NOSEL
1070
     0
1002
}
1002
{
1000
BEHIND
1070
     0
1002
}
1002
{
1000
REACTOR
1002
}
  0
TEXT
  5
384
330
2
100
AcDbEntity
  8
0
 60
     1
100
AcDbText
 10
830.9999999999996
 20
-52.92726755347096
 30
0.0
 40
3.5
  1
!GENTITLE-INSERT
100
AcDbText
  0
TEXT
  5
385
330
2
100
AcDbEntity
  8
0
 60
     1
100
AcDbText
 10
10.0
 20
-47.92726755347096
 30
0.0
 40
3.5
  1
!GENTITLE-LL
100
AcDbText
  0
TEXT
  5
386
330
2
100
AcDbEntity
  8
0
 60
     1
100
AcDbText
 10
831.0
 20
526.072732446529
 30
0.0
 40
3.5
  1
!GENTITLE-RU
100
AcDbText
  0
TEXT
  5
387
330
2
100
AcDbEntity
  8
0
 60
     1
100
AcDbText
 10
841.0
 20
536.0727324465289
 30
0.0
 40
3.5
  1
!GENTITLE-MAX
100
AcDbText
  0
TEXT
  5
3FA
330
2
100
AcDbEntity
  8
0
 60
     1
100
AcDbText
 10
684.8812705983662
 20
141.8068575944205
 30
0.0
 40
3.5
  1
!GENTITLE-INSERT
100
AcDbText
  0
TEXT
  5
3FB
330
2
100
AcDbEntity
  8
0
 60
     1
100
AcDbText
 10
-136.1187294016335
 20
146.8068575944205
 30
0.0
 40
3.5
  1
!GENTITLE-LL
100
AcDbText
  0
TEXT
  5
3FC
330
2
100
AcDbEntity
  8
0
 60
     1
100
AcDbText
 10
684.8812705983664
 20
720.8068575944203
 30
0.0
 40
3.5
  1
!GENTITLE-RU
100
AcDbText
  0
TEXT
  5
3FD
330
2
100
AcDbEntity
  8
0
 60
     1
100
AcDbText
 10
694.8812705983664
 20
730.8068575944203
 30
0.0
 40
3.5
  1
!GENTITLE-MAX
100
AcDbText
  0
LINE
  5
2F02
330
2
100
AcDbEntity
  8
LC-001-002-----0
 62
     7
370
    50
100
AcDbLine
 10
1172.483357883089
 20
1280.530147142855
 30
0.0
 11
1172.483357883089
 21
1297.144287142855
 31
0.0
  0
ARC
  5
2F03
330
2
100
AcDbEntity
  8
LC-002-002-RND-0
 62
     7
370
    50
100
AcDbCircle
 10
1188.428207883089
 20
1296.908067142855
 30
0.0
 40
0.6692900000000001
100
AcDbArc
 50
180.0
 51
270.0
  0
LINE
  5
2F04
330
2
100
AcDbEntity
  8
LC-001-002-----0
 62
     7
370
    50
100
AcDbLine
 10
1203.428177883089
 20
1280.530147142855
 30
0.0
 11
1203.428177883089
 21
1295.136417142855
 31
0.0
  0
ARC
  5
2F05
330
2
100
AcDbEntity
  8
LC-002-002-RND-0
 62
     7
370
    50
100
AcDbCircle
 10
1173.585717883089
 20
1297.144287142855
 30
0.0
 40
1.10236
100
AcDbArc
 50
90.0
 51
180.0
  0
LINE
  5
2F06
330
2
100
AcDbEntity
  8
LC-001-002-----0
 62
     7
370
    50
100
AcDbLine
 10
1173.585717883089
 20
1279.427787142855
 30
0.0
 11
1202.325817883089
 21
1279.427787142855
 31
0.0
  0
LINE
  5
2F07
330
2
100
AcDbEntity
  8
LC-001-002-----0
 62
     7
370
    50
100
AcDbLine
 10
1173.585717883089
 20
1298.246647142855
 30
0.0
 11
1186.656557883089
 21
1298.246647142855
 31
0.0
  0
LINE
  5
2F08
330
2
100
AcDbEntity
  8
LC-001-002-----0
 62
     7
370
    50
100
AcDbLine
 10
1188.428207883089
 20
1296.238777142855
 30
0.0
 11
1202.325817883089
 21
1296.238777142855
 31
0.0
  0
ARC
  5
2F09
330
2
100
AcDbEntity
  8
LC-002-002-RND-0
 62
     7
370
    50
100
AcDbCircle
 10
1173.585717883089
 20
1280.530147142855
 30
0.0
 40
1.10236
100
AcDbArc
 50
180.0
 51
270.0
  0
LINE
  5
2F0A
330
2
100
AcDbEntity
  8
LC-001-002-----0
 62
     7
370
    50
100
AcDbLine
 10
1187.758917883089
 20
1296.908067142855
 30
0.0
 11
1187.758917883089
 21
1297.144287142855
 31
0.0
  0
ARC
  5
2F0B
330
2
100
AcDbEntity
  8
LC-002-002-RND-0
 62
     7
370
    50
100
AcDbCircle
 10
1202.325817883089
 20
1280.530147142855
 30
0.0
 40
1.10236
100
AcDbArc
 50
270.0
 51
0.0
  0
ARC
  5
2F0C
330
2
100
AcDbEntity
  8
LC-002-002-RND-0
 62
     7
370
    50
100
AcDbCircle
 10
1202.325817883089
 20
1295.136417142855
 30
0.0
 40
1.10236
100
AcDbArc
 50
0.0
 51
90.0
  0
ARC
  5
2F0D
330
2
100
AcDbEntity
  8
LC-002-002-RND-0
 62
     7
370
    50
100
AcDbCircle
 10
1186.656557883089
 20
1297.144287142855
 30
0.0
 40
1.10236
100
AcDbArc
 50
0.0
 51
90.0
  0
LINE
  5
2F0E
330
2
100
AcDbEntity
  8
LC-001-002-----0
 62
     7
370
    50
100
AcDbLine
 10
1190.137367968699
 20
1286.190769443635
 30
0.0
 11
1190.444943140949
 21
1286.092609088775
 31
0.0
  0
LINE
  5
2F0F
330
2
100
AcDbEntity
  8
LC-001-002-----0
 62
     7
370
    50
100
AcDbLine
 10
1192.120050893089
 20
1285.766057379675
 30
0.0
 11
1192.868080893089
 21
1285.766057379675
 31
0.0
  0
LINE
  5
2F10
330
2
100
AcDbEntity
  8
LC-001-002-----0
 62
     7
370
    50
100
AcDbLine
 10
1190.623990893089
 20
1289.693945823095
 30
0.0
 11
1193.389274378259
 21
1289.693945823095
 31
0.0
  0
LINE
  5
2F11
330
2
100
AcDbEntity
  8
LC-001-002-----0
 62
     7
370
    50
100
AcDbLine
 10
1190.623990893089
 20
1289.693945823095
 30
0.0
 11
1190.623990893089
 21
1288.197885823095
 31
0.0
  0
LINE
  5
2F12
330
2
100
AcDbEntity
  8
LC-001-002-----0
 62
     7
370
    50
100
AcDbLine
 10
1190.623990893089
 20
1288.197885823095
 30
0.0
 11
1193.389274378259
 21
1288.197885823095
 31
0.0
  0
LINE
  5
2F13
330
2
100
AcDbEntity
  8
LC-001-002-----0
 62
     7
370
    25
100
AcDbLine
 10
1193.389274378259
 20
1289.693945823095
 30
0.0
 11
1193.566950322119
 21
1288.882539375045
 31
0.0
  0
LINE
  5
2F14
330
2
100
AcDbEntity
  8
LC-001-002-----0
 62
     7
370
    25
100
AcDbLine
 10
1193.566950322119
 20
1288.882539375045
 30
0.0
 11
1193.389274378259
 21
1288.197885823095
 31
0.0
  0
LINE
  5
2F15
330
2
100
AcDbEntity
  8
LC-001-002-----0
 62
     7
370
    50
100
AcDbLine
 10
1192.868080893089
 20
1285.766057379675
 30
0.0
 11
1192.868080893089
 21
1288.197885823095
 31
0.0
  0
LINE
  5
2F16
330
2
100
AcDbEntity
  8
LC-001-002-----0
 62
     7
370
    50
100
AcDbLine
 10
1192.120050893089
 20
1285.766057379675
 30
0.0
 11
1192.120050893089
 21
1288.197885823095
 31
0.0
  0
LINE
  5
2F17
330
2
100
AcDbEntity
  8
LC-001-002-----0
 62
     7
370
    50
100
AcDbLine
 10
1191.651547893089
 20
1287.882925823095
 30
0.0
 11
1191.100367893089
 21
1287.882925823095
 31
0.0
  0
LINE
  5
2F18
330
2
100
AcDbEntity
  8
LC-001-002-----0
 62
     7
370
    50
100
AcDbLine
 10
1191.100367893089
 20
1287.823870823095
 30
0.0
 11
1191.100367893089
 21
1287.882925823095
 31
0.0
  0
LINE
  5
2F19
330
2
100
AcDbEntity
  8
LC-001-002-----0
 62
     7
370
    50
100
AcDbLine
 10
1190.31296787508
 20
1288.197885823095
 30
0.0
 11
1190.137367968699
 21
1286.190769443635
 31
0.0
  0
ARC
  5
2F1A
330
2
100
AcDbEntity
  8
LC-001-002-----0
 62
     7
370
    50
100
AcDbCircle
 10
1190.493347689809
 20
1288.001035823095
 30
0.0
 40
0.19685
100
AcDbArc
 50
90.0
 51
175.0000000000005
  0
LINE
  5
2F1B
330
2
100
AcDbEntity
  8
LC-001-002-----0
 62
     7
370
    50
100
AcDbLine
 10
1191.482671262339
 20
1288.197885823095
 30
0.0
 11
1190.312967875081
 21
1288.197885823095
 31
0.0
  0
ARC
  5
2F1C
330
2
100
AcDbEntity
  8
LC-001-002-----0
 62
     7
370
    50
100
AcDbCircle
 10
1191.482671262339
 20
1288.040405823095
 30
0.0
 40
0.1574800000000007
100
AcDbArc
 50
3.999999999996509
 51
90.0
  0
LINE
  5
2F1D
330
2
100
AcDbEntity
  8
LC-001-002-----0
 62
     7
370
    50
100
AcDbLine
 10
1191.651547893089
 20
1287.882925823095
 30
0.0
 11
1191.639767641059
 21
1288.051391076715
 31
0.0
  0
LINE
  5
2F1E
330
2
100
AcDbEntity
  8
LC-001-002-----0
 62
     7
370
    50
100
AcDbLine
 10
1191.100367893089
 20
1287.823870823095
 30
0.0
 11
1190.776788697729
 21
1287.823870823095
 31
0.0
  0
ARC
  5
2F1F
330
2
100
AcDbEntity
  8
LC-001-002-----0
 62
     7
370
    50
100
AcDbCircle
 10
1190.776788697729
 20
1287.627020823095
 30
0.0
 40
0.19685
100
AcDbArc
 50
90.0
 51
175.0000000000005
  0
LINE
  5
2F20
330
2
100
AcDbEntity
  8
LC-001-002-----0
 62
     7
370
    50
100
AcDbLine
 10
1190.580687790719
 20
1287.644177442325
 30
0.0
 11
1190.444943140949
 21
1286.092609088775
 31
0.0
  0
INSERT
  5
2F21
330
2
100
AcDbEntity
  8
LC-003-005-----0
 62
     7
370
    25
100
AcDbBlockReference
  2
*X1
 10
1164.737546603089
 20
1270.498874921975
 30
0.0
 41
0.0393699999999626
 42
0.0393699999999626
 43
0.03937
  0
INSERT
  5
2F22
330
2
100
AcDbEntity
  8
LC-003-005-----0
 62
     7
370
    25
100
AcDbBlockReference
  2
*X2
 10
1164.737546603089
 20
1270.498874921975
 30
0.0
 41
0.0393699999999626
 42
0.0393699999999626
 43
0.03937
  0
DIMENSION
  5
2F23
330
2
100
AcDbEntity
  8
0
100
AcDbDimension
  2
*D3
 10
1204.683587930657
 20
1296.238777142855
 30
0.0
 11
1204.436737930657
 21
1287.833282142855
 31
0.0
 70
    32
 71
     5
 42
16.81099000000017
  3
DIN
100
AcDbAlignedDimension
 13
1202.325817883089
 23
1279.427787142855
 33
0.0
 14
1202.325817883089
 24
1296.238777142855
 34
0.0
 50
90.0
100
AcDbRotatedDimension
1001
ACAD
1000
DSTYLE
1002
{
1070
    41
1040
0.2
1070
    42
1040
0.1
1070
    43
1040
0.039
1070
    44
1040
0.2
1070
    73
1070
     0
1070
   141
1040
0.039
1070
   147
1040
0.05
1070
   340
1005
B97
1002
}
  0
DIMENSION
  5
2F30
330
2
100
AcDbEntity
  8
0
100
AcDbDimension
  2
*D4
 10
1187.758917883089
 20
1299.339675172809
 30
0.0
 11
1180.121137883089
 21
1299.586525172809
 31
0.0
 70
    32
 71
     5
 42
15.27555999999981
  3
DIN
100
AcDbAlignedDimension
 13
1172.483357883089
 23
1297.144287142855
 33
0.0
 14
1187.758917883089
 24
1297.144287142855
 34
0.0
100
AcDbRotatedDimension
1001
ACAD
1000
DSTYLE
1002
{
1070
    41
1040
0.2
1070
    42
1040
0.1
1070
    43
1040
0.039
1070
    44
1040
0.2
1070
    73
1070
     0
1070
   141
1040
0.039
1070
   147
1040
0.05
1070
   340
1005
B97
1002
}
  0
DIMENSION
  5
2F3D
330
2
100
AcDbEntity
  8
0
100
AcDbDimension
  2
*D5
 10
1203.428177883089
 20
1299.339675172809
 30
0.0
 11
1195.593547883089
 21
1299.586525172809
 31
0.0
 70
    32
 71
     5
 42
15.66925999999989
  3
DIN
100
AcDbAlignedDimension
 13
1187.758917883089
 23
1297.144287142855
 33
0.0
 14
1203.428177883089
 24
1295.136417142855
 34
0.0
100
AcDbRotatedDimension
1001
ACAD
1000
DSTYLE
1002
{
1070
   279
1070
     1
1070
    41
1040
0.2
1070
    42
1040
0.1
1070
    43
1040
0.039
1070
    44
1040
0.2
1070
    73
1070
     0
1070
   141
1040
0.039
1070
   147
1040
0.05
1070
   340
1005
B97
1002
}
  0
DIMENSION
  5
2F4A
330
2
100
AcDbEntity
  8
0
100
AcDbDimension
  2
*D6
 10
1186.656557883089
 20
1297.144287142854
 30
0.0
 11
1185.668562571791
 21
1296.040169692874
 31
0.0
 70
   164
 71
     5
 42
1.102360000001452
  3
DIN
100
AcDbRadialDimension
 15
1187.391647495472
 25
1297.965774106456
 35
0.0
 40
0.0
1001
ACAD
1000
DSTYLE
1002
{
1070
    41
1040
0.2
1070
    42
1040
0.1
1070
    43
1040
0.039
1070
    44
1040
0.2
1070
    73
1070
     0
1070
   141
1040
0.039
1070
   147
1040
0.05
1070
   279
1070
     1
1070
   288
1070
     1
1070
   340
1005
B97
1002
}
  0
DIMENSION
  5
2F53
330
2
100
AcDbEntity
  8
0
100
AcDbDimension
  2
*D7
 10
1173.585717883089
 20
1297.144287142854
 30
0.0
 11
1173.693214603937
 21
1296.795791333206
 31
0.0
 70
   164
 71
     5
 42
1.102360000000317
  3
DIN
100
AcDbRadialDimension
 15
1173.260791569025
 25
1298.197672381041
 35
0.0
 40
0.0
1001
ACAD
1000
DSTYLE
1002
{
1070
    41
1040
0.2
1070
    42
1040
0.1
1070
    43
1040
0.039
1070
    44
1040
0.2
1070
    73
1070
     0
1070
   141
1040
0.039
1070
   147
1040
0.05
1070
   279
1070
     1
1070
   288
1070
     1
1070
   340
1005
B97
1002
}
  0
DIMENSION
  5
2F5C
330
2
100
AcDbEntity
  8
0
100
AcDbDimension
  2
*D8
 10
1173.585717883089
 20
1280.530147142854
 30
0.0
 11
1173.843598547677
 21
1280.788027807442
 31
0.0
 70
   164
 71
     5
 42
1.102359999998952
  3
DIN
100
AcDbRadialDimension
 15
1172.80623165178
 25
1279.750660911546
 35
0.0
 40
0.0
1001
ACAD
1000
DSTYLE
1002
{
1070
    41
1040
0.2
1070
    42
1040
0.1
1070
    43
1040
0.039
1070
    44
1040
0.2
1070
    73
1070
     0
1070
   141
1040
0.039
1070
   147
1040
0.05
1070
   288
1070
     1
1070
   340
1005
B97
1002
}
  0
DIMENSION
  5
2F65
330
2
100
AcDbEntity
  8
0
100
AcDbDimension
  2
*D9
 10
1202.32581788309
 20
1280.530147142856
 30
0.0
 11
1204.142671010292
 21
1278.713294015648
 31
0.0
 70
    36
 71
     5
 42
1.102359999999747
  3
DIN
100
AcDbRadialDimension
 15
1203.105304114397
 25
1279.750660911546
 35
0.0
 40
0.0
1001
ACAD
1000
DSTYLE
1002
{
1070
    41
1040
0.2
1070
    42
1040
0.1
1070
    43
1040
0.039
1070
    44
1040
0.2
1070
    73
1070
     0
1070
   141
1040
0.039
1070
   147
1040
0.05
1070
   288
1070
     1
1070
   340
1005
B97
1002
}
  0
DIMENSION
  5
2F6F
330
2
100
AcDbEntity
  8
0
100
AcDbDimension
  2
*D10
 10
1202.325817883084
 20
1295.136417142851
 30
0.0
 11
1201.761118796289
 21
1294.636932143233
 31
0.0
 70
   164
 71
     5
 42
1.102360000006228
  3
DIN
100
AcDbRadialDimension
 15
1203.15152273131
 25
1295.866765739912
 35
0.0
 40
0.0
1001
ACAD
1000
DSTYLE
1002
{
1070
    41
1040
0.2
1070
    42
1040
0.1
1070
    43
1040
0.039
1070
    44
1040
0.2
1070
    73
1070
     0
1070
   141
1040
0.039
1070
   147
1040
0.05
1070
   279
1070
     1
1070
   288
1070
     1
1070
   340
1005
B97
1002
}
  0
DIMENSION
  5
2F78
330
2
100
AcDbEntity
  8
0
100
AcDbDimension
  2
*D11
 10
1171.435758925615
 20
1279.427787142855
 30
0.0
 11
1171.188908925615
 21
1288.837217142855
 31
0.0
 70
    32
 71
     5
 42
18.81886000000008
  3
DIN
100
AcDbAlignedDimension
 13
1173.585717883089
 23
1298.246647142855
 33
0.0
 14
1173.585717883089
 24
1279.427787142855
 34
0.0
 50
90.0
100
AcDbRotatedDimension
1001
ACAD
1000
DSTYLE
1002
{
1070
    41
1040
0.2
1070
    42
1040
0.1
1070
    43
1040
0.039
1070
    44
1040
0.2
1070
    73
1070
     0
1070
   141
1040
0.039
1070
   147
1040
0.05
1070
   340
1005
B97
1002
}
  0
DIMENSION
  5
2F85
330
2
100
AcDbEntity
  8
0
100
AcDbDimension
  2
*D12
 10
1203.428177883089
 20
1278.253180985248
 30
0.0
 11
1187.955767883089
 21
1278.500030985248
 31
0.0
 70
    32
 71
     5
 42
30.94481999999971
  3
DIN
100
AcDbAlignedDimension
 13
1172.483357883089
 23
1280.530147142855
 33
0.0
 14
1203.428177883089
 24
1280.530147142855
 34
0.0
100
AcDbRotatedDimension
1001
ACAD
1000
DSTYLE
1002
{
1070
    41
1040
0.2
1070
    42
1040
0.1
1070
    43
1040
0.039
1070
    44
1040
0.2
1070
    73
1070
     0
1070
   141
1040
0.039
1070
   147
1040
0.05
1070
   340
1005
B97
1002
}
  0
DIMENSION
  5
2F92
330
2
100
AcDbEntity
  8
0
100
AcDbDimension
  2
*D13
 10
1188.428207883088
 20
1296.908067142853
 30
0.0
 11
1189.46397724937
 21
1298.050212943349
 31
0.0
 70
   164
 71
     5
 42
0.6692899999975454
  3
DIN
100
AcDbRadialDimension
 15
1187.978599899845
 25
1296.412283152085
 35
0.0
 40
0.0
1001
ACAD
1000
DSTYLE
1002
{
1070
    41
1040
0.2
1070
    42
1040
0.1
1070
    43
1040
0.039
1070
    44
1040
0.2
1070
    73
1070
     0
1070
   141
1040
0.039
1070
   147
1040
0.05
1070
   279
1070
     1
1070
   288
1070
     1
1070
   340
1005
B97
1002
}
  0
DIMENSION
  5
2F9C
330
2
100
AcDbEntity
  8
0
100
AcDbDimension
  2
*D14
 10
1190.623990893089
 20
1290.139525059865
 30
0.0
 11
1191.697349226422
 21
1290.386375059864
 31
0.0
 70
    32
 71
     5
 42
0.3110230180086546
  3
DIN
100
AcDbAlignedDimension
 13
1190.31296787508
 23
1288.197885823095
 33
0.0
 14
1190.623990893089
 24
1289.693945823095
 34
0.0
100
AcDbRotatedDimension
1001
ACAD
1000
DSTYLE
1002
{
1070
    41
1040
0.2
1070
    42
1040
0.1
1070
    43
1040
0.039
1070
    44
1040
0.2
1070
    73
1070
     0
1070
   141
1040
0.039
1070
   147
1040
0.05
1070
   340
1005
B97
1002
}
  0
MTEXT
  5
3001
330
2
100
AcDbEntity
  8
0
100
AcDbMText
 10
1176.25854436431
 20
1285.901458258432
 30
0.0
 40
0.3937
 41
14.93397349915023
 71
     1
 72
     5
  3
{\fTimes New Roman|b0|i0|c0|p18;\H1.27x;Model : SIO-3321DUR   \H0.58x;IMPORTANT ! \PThis template is provided as a guide for Undermount cutout only. \PBefore beginning to cut countertop, compare physical dimension of the template and the cutout line 
  1
with the actual sink unit for an accurate cut.\PHamatUSA is not responsible for any countertop, installation or labor charges due to failure to follow these instructions.\P\Lwww.Hamatusa.com }
  7
\U+C2A4\U+D0C0\U+C77C2
 73
     1
 44
1.0
  0
VIEWPORT
  5
74
330
C
100
AcDbEntity
 67
     1
  8
0
100
AcDbViewport
 10
490.633788896909
 20
297.0009369707932
 30
0.0
 40
1115.370256166983
 41
599.3755656108596
 68
     1
 69
     1
 12
490.633788896909
 22
297.0009369707932
 13
0.0
 23
0.0
 14
10.0
 24
10.0
 15
10.0
 25
10.0
 16
0.0
 26
0.0
 36
1.0
 17
0.0
 27
0.0
 37
0.0
 42
50.0
 43
0.0
 44
0.0
 45
599.3755656108596
 50
0.0
 51
0.0
 72
  1000
 90
    32800
  1

281
     0
 71
     1
 74
     0
110
0.0
120
0.0
130
0.0
111
1.0
121
0.0
131
0.0
112
0.0
122
1.0
132
0.0
 79
     0
146
0.0
170
     0
  0
ENDSEC
  0
SECTION
  2
OBJECTS
  0
DICTIONARY
  5
7
330
0
100
AcDbDictionary
281
     1
  3
ACAD_COLOR
350
5A3
  3
ACAD_GROUP
350
20
  3
ACAD_LAYOUT
350
B
  3
ACAD_MATERIAL
350
5A2
  3
ACAD_MLINESTYLE
350
21
  3
ACAD_PLOTSETTINGS
350
22
  3
ACAD_PLOTSTYLENAME
350
6
  3
ACAD_TABLESTYLE
350
5C3
  3
ACAD_VISUALSTYLE
350
2FE6
  3
AcDbVariableDictionary
350
81
  0
DICTIONARY
  5
1CC0
330
10
100
AcDbDictionary
280
     1
281
     1
  3
ACAD_LAYERSTATES
360
1CC1
  0
DICTIONARY
  5
95E
330
2
100
AcDbDictionary
280
     1
281
     1
  3
ACAD_SORTENTS
360
95F
  0
DICTIONARY
  5
5A3
102
{ACAD_REACTORS
330
7
102
}
330
7
100
AcDbDictionary
281
     1
  0
DICTIONARY
  5
20
102
{ACAD_REACTORS
330
7
102
}
330
7
100
AcDbDictionary
281
     1
  0
DICTIONARY
  5
B
102
{ACAD_REACTORS
330
7
102
}
330
7
100
AcDbDictionary
281
     1
  3
DIN A1 Title Block
350
F
  3
Model
350
A
  0
DICTIONARY
  5
5A2
102
{ACAD_REACTORS
330
7
102
}
330
7
100
AcDbDictionary
281
     1
  3
ByBlock
350
2FE4
  3
ByLayer
350
2FE3
  3
Global
350
2FE5
  0
DICTIONARY
  5
21
102
{ACAD_REACTORS
330
7
102
}
330
7
100
AcDbDictionary
281
     1
  3
Standard
350
23
  0
DICTIONARY
  5
22
102
{ACAD_REACTORS
330
7
102
}
330
7
100
AcDbDictionary
281
     1
  0
ACDBDICTIONARYWDFLT
  5
6
102
{ACAD_REACTORS
330
7
102
}
330
7
100
AcDbDictionary
281
     1
  3
Normal
350
5
100
AcDbDictionaryWithDefault
340
5
  0
DICTIONARY
  5
5C3
102
{ACAD_REACTORS
330
7
102
}
330
7
100
AcDbDictionary
281
     1
  3
Standard
350
5C4
  0
DICTIONARY
  5
2FE6
102
{ACAD_REACTORS
330
7
102
}
330
7
100
AcDbDictionary
281
     1
  3
2dWireframe
350
2FEC
  3
3D Hidden
350
2FEE
  3
3dWireframe
350
2FED
  3
Basic
350
2FEB
  3
Brighten
350
2FF2
  3
ColorChange
350
2FF6
  3
Conceptual
350
2FEF
  3
Dim
350
2FF1
  3
Facepattern
350
2FF5
  3
Flat
350
2FE7
  3
FlatWithEdges
350
2FE8
  3
Gouraud
350
2FE9
  3
GouraudWithEdges
350
2FEA
  3
Linepattern
350
2FF4
  3
Realistic
350
2FF0
  3
Thicken
350
2FF3
  0
DICTIONARY
  5
81
102
{ACAD_REACTORS
330
7
102
}
330
7
100
AcDbDictionary
281
     1
  3
CTABLESTYLE
350
5EE
  3
DIMASSOC
350
82
  3
PROJECTNAME
350
2FBC
  0
DICTIONARY
  5
1CC1
102
{ACAD_REACTORS
330
1CC0
102
}
330
1CC0
100
AcDbDictionary
281
     1
  0
SORTENTSTABLE
  5
95F
102
{ACAD_REACTORS
330
95E
102
}
330
95E
100
AcDbSortentsTable
330
2
331
3FD
  5
3FD
331
37C
  5
37C
331
3FB
  5
3FB
331
387
  5
387
331
385
  5
385
331
3FC
  5
3FC
331
3FA
  5
3FA
331
386
  5
386
331
384
  5
384
  0
LAYOUT
  5
F
102
{ACAD_REACTORS
330
B
102
}
330
B
100
AcDbPlotSettings
  1

  2
none_device
  4
ISO_A1_(841.00_x_594.00_MM)
  6

 40
7.549999999999998
 41
20.05
 42
7.549999999999998
 43
20.05
 44
841.0
 45
594.0
 46
-7.57
 47
-20.06
 48
0.0
 49
0.0
140
0.0
141
0.0
142
1.0
143
1.0
 70
   688
 72
     1
 73
     0
 74
     5
  7

 75
    16
147
1.0
 76
     0
 77
     2
 78
   300
148
0.0128164049386896
149
0.0090630292066862
100
AcDbLayout
  1
DIN A1 Title Block
 70
     1
 71
     1
 10
0.0071835950613108
 20
0.0009369707933118
 11
841.0071835950612
 21
594.0009369707931
 12
0.0
 22
0.0
 32
0.0
 14
1.000000000000000E+20
 24
1.000000000000000E+20
 34
1.000000000000000E+20
 15
-1.000000000000000E+20
 25
-1.000000000000000E+20
 35
-1.000000000000000E+20
146
0.0
 13
0.0
 23
0.0
 33
0.0
 16
1.0
 26
0.0
 36
0.0
 17
0.0
 27
1.0
 37
0.0
 76
     0
330
C
331
74
  0
LAYOUT
  5
A
102
{ACAD_REACTORS
330
B
102
}
330
B
100
AcDbPlotSettings
  1

  2
none_device
  4
ISO_A4_(297.00_x_210.00_MM)
  6

 40
7.5
 41
20.0
 42
7.5
 43
20.0
 44
297.0
 45
210.0
 46
0.0
 47
0.0
 48
969.1120635225747
 49
1410.089773188028
140
997.7071895623687
141
1431.243016253039
142
1.0
143
20.0
 70
 11952
 72
     1
 73
     0
 74
     4
  7

 75
    22
147
0.05
 76
     0
 77
     2
 78
   300
148
-969.1120635225747
149
-1410.089773188028
100
AcDbLayout
  1
Model
 70
     1
 71
     0
 10
0.0
 20
0.0
 11
12.0
 21
9.0
 12
0.0
 22
0.0
 32
0.0
 14
0.0
 24
0.0
 34
0.0
 15
0.0
 25
0.0
 35
0.0
146
0.0
 13
0.0
 23
0.0
 33
0.0
 16
1.0
 26
0.0
 36
0.0
 17
0.0
 27
1.0
 37
0.0
 76
     0
330
2
331
2FDD
1001
ACAD_PSEXT
1000
\U+C5C6\U+C74C
1000
\U+C5C6\U+C74C
1000
\U+C801\U+C6A9 \U+AC00\U+B2A5\U+D558\U+C9C0 \U+C54A\U+C74C
1000
\U+BC30\U+CE58\U+AC00 \U+C0C8\U+B85C\U+C6B4 \U+D50C\U+B85C\U+D130 \U+AD6C\U+C131\U+C744 \U+C120\U+D0DD\U+D560 \U+B54C\U+AE4C\U+C9C0 \U+D50C\U+B86F\U+B418\U+C9C0 \U+C54A\U+C2B5\U+B2C8\U+B2E4.
1070
     0
  0
MATERIAL
  5
2FE4
102
{ACAD_XDICTIONARY
360
3006
102
}
102
{ACAD_REACTORS
330
5A2
102
}
330
5A2
100
AcDbMaterial
  1
ByBlock
  0
MATERIAL
  5
2FE3
102
{ACAD_XDICTIONARY
360
3004
102
}
102
{ACAD_REACTORS
330
5A2
102
}
330
5A2
100
AcDbMaterial
  1
ByLayer
  0
MATERIAL
  5
2FE5
102
{ACAD_XDICTIONARY
360
3008
102
}
102
{ACAD_REACTORS
330
5A2
102
}
330
5A2
100
AcDbMaterial
  1
Global
  0
MLINESTYLE
  5
23
102
{ACAD_REACTORS
330
21
102
}
330
21
100
AcDbMlineStyle
  2
STANDARD
 70
     0
  3

 62
   256
 51
90.0
 52
90.0
 71
     2
 49
0.5
 62
   256
  6
BYLAYER
 49
-0.5
 62
   256
  6
BYLAYER
  0
ACDBPLACEHOLDER
  5
5
102
{ACAD_REACTORS
330
6
102
}
330
6
  0
TABLESTYLE
  5
5C4
102
{ACAD_XDICTIONARY
360
3002
102
}
102
{ACAD_REACTORS
330
5C3
102
}
330
5C3
100
AcDbTableStyle
  3
Standard
 70
     0
 71
     0
 40
1.5
 41
1.5
280
     0
281
     0
  7
Standard
140
4.5
170
     2
 62
     0
 63
     7
283
     0
274
    -2
284
     1
 64
     0
275
    -2
285
     1
 65
     0
276
    -2
286
     1
 66
     0
277
    -2
287
     1
 67
     0
278
    -2
288
     1
 68
     0
279
    -2
289
     1
 69
     0
  7
Standard
140
6.0
170
     5
 62
     0
 63
     7
283
     0
274
    -2
284
     1
 64
     0
275
    -2
285
     1
 65
     0
276
    -2
286
     1
 66
     0
277
    -2
287
     1
 67
     0
278
    -2
288
     1
 68
     0
279
    -2
289
     1
 69
     0
  7
Standard
140
4.5
170
     5
 62
     0
 63
     7
283
     0
274
    -2
284
     1
 64
     0
275
    -2
285
     1
 65
     0
276
    -2
286
     1
 66
     0
277
    -2
287
     1
 67
     0
278
    -2
288
     1
 68
     0
279
    -2
289
     1
 69
     0
  0
VISUALSTYLE
  5
2FEC
102
{ACAD_REACTORS
330
2FE6
102
}
330
2FE6
100
AcDbVisualStyle
  2
2dWireframe
 70
     4
 71
     0
 72
     2
 73
     0
 90
        0
 40
-0.6
 41
-30.0
 62
     5
 63
     7
421
 16777215
 74
     1
 91
        4
 64
     7
 65
   257
 75
     1
175
     1
 42
1.0
 92
        0
 66
   257
 43
1.0
 76
     1
 77
     6
 78
     2
 67
     7
 79
     5
170
     0
171
     0
290
     0
174
     0
 93
        1
 44
0.0
173
     0
291
     0
 45
0.0
1001
ACAD
1000
AcDbSavedByObjectVersion
1070
     0
  0
VISUALSTYLE
  5
2FEE
102
{ACAD_REACTORS
330
2FE6
102
}
330
2FE6
100
AcDbVisualStyle
  2
3D Hidden
 70
     6
 71
     1
 72
     2
 73
     2
 90
        0
 40
-0.6
 41
-30.0
 62
     5
 63
     7
421
 16777215
 74
     2
 91
        2
 64
     7
 65
   257
 75
     2
175
     1
 42
40.0
 92
        0
 66
   257
 43
1.0
 76
     1
 77
     6
 78
     2
 67
     7
 79
     3
170
     0
171
     0
290
     0
174
     0
 93
        1
 44
0.0
173
     0
291
     0
 45
0.0
1001
ACAD
1000
AcDbSavedByObjectVersion
1070
     0
  0
VISUALSTYLE
  5
2FED
102
{ACAD_REACTORS
330
2FE6
102
}
330
2FE6
100
AcDbVisualStyle
  2
3dWireframe
 70
     5
 71
     0
 72
     2
 73
     0
 90
        0
 40
-0.6
 41
-30.0
 62
     5
 63
     7
421
 16777215
 74
     1
 91
        4
 64
     7
 65
   257
 75
     1
175
     1
 42
1.0
 92
        0
 66
   257
 43
1.0
 76
     1
 77
     6
 78
     2
 67
     7
 79
     5
170
     0
171
     0
290
     0
174
     0
 93
        1
 44
0.0
173
     0
291
     0
 45
0.0
1001
ACAD
1000
AcDbSavedByObjectVersion
1070
     0
  0
VISUALSTYLE
  5
2FEB
102
{ACAD_REACTORS
330
2FE6
102
}
330
2FE6
100
AcDbVisualStyle
  2
Basic
 70
     7
 71
     1
 72
     0
 73
     1
 90
        0
 40
-0.6
 41
-30.0
 62
     5
 63
     7
421
 16777215
 74
     0
 91
        4
 64
     7
 65
   257
 75
     1
175
     1
 42
1.0
 92
        8
 66
     7
 43
1.0
 76
     1
 77
     6
 78
     2
 67
     7
 79
     5
170
     0
171
     0
290
     0
174
     0
 93
        1
 44
0.0
173
     0
291
     1
 45
0.0
1001
ACAD
1000
AcDbSavedByObjectVersion
1070
     0
  0
VISUALSTYLE
  5
2FF2
102
{ACAD_REACTORS
330
2FE6
102
}
330
2FE6
100
AcDbVisualStyle
  2
Brighten
 70
    12
 71
     2
 72
     2
 73
     0
 90
        0
 40
-0.6
 41
-30.0
 62
     5
 63
     7
421
 16777215
 74
     1
 91
        4
 64
     7
 65
   257
 75
     1
175
     1
 42
1.0
 92
        8
 66
     7
 43
1.0
 76
     1
 77
     6
 78
     2
 67
     7
 79
     5
170
     0
171
     0
290
     0
174
     0
 93
        1
 44
50.0
173
     0
291
     1
 45
0.0
1001
ACAD
1000
AcDbSavedByObjectVersion
1070
     0
  0
VISUALSTYLE
  5
2FF6
102
{ACAD_REACTORS
330
2FE6
102
}
330
2FE6
100
AcDbVisualStyle
  2
ColorChange
 70
    16
 71
     2
 72
     2
 73
     3
 90
        0
 40
-0.6
 41
-30.0
 62
     5
 63
     8
421
  8421504
 74
     1
 91
        4
 64
     7
 65
   257
 75
     1
175
     1
 42
1.0
 92
        8
 66
     8
424
  8421504
 43
1.0
 76
     1
 77
     6
 78
     2
 67
     7
 79
     5
170
     0
171
     0
290
     0
174
     0
 93
        1
 44
0.0
173
     0
291
     1
 45
0.0
1001
ACAD
1000
AcDbSavedByObjectVersion
1070
     0
  0
VISUALSTYLE
  5
2FEF
102
{ACAD_REACTORS
330
2FE6
102
}
330
2FE6
100
AcDbVisualStyle
  2
Conceptual
 70
     9
 71
     3
 72
     2
 73
     0
 90
        0
 40
-0.6
 41
-30.0
 62
     5
 63
     7
421
 16777215
 74
     2
 91
        2
 64
     7
 65
   257
 75
     1
175
     1
 42
40.0
 92
        8
 66
     7
 43
1.0
 76
     1
 77
     6
 78
     2
 67
     7
 79
     3
170
     0
171
     0
290
     0
174
     0
 93
        1
 44
0.0
173
     0
291
     0
 45
0.0
1001
ACAD
1000
AcDbSavedByObjectVersion
1070
     0
  0
VISUALSTYLE
  5
2FF1
102
{ACAD_REACTORS
330
2FE6
102
}
330
2FE6
100
AcDbVisualStyle
  2
Dim
 70
    11
 71
     2
 72
     2
 73
     0
 90
        0
 40
-0.6
 41
-30.0
 62
     5
 63
     7
421
 16777215
 74
     1
 91
        4
 64
     7
 65
   257
 75
     1
175
     1
 42
1.0
 92
        8
 66
     7
 43
1.0
 76
     1
 77
     6
 78
     2
 67
     7
 79
     5
170
     0
171
     0
290
     0
174
     0
 93
        1
 44
-50.0
173
     0
291
     1
 45
0.0
1001
ACAD
1000
AcDbSavedByObjectVersion
1070
     0
  0
VISUALSTYLE
  5
2FF5
102
{ACAD_REACTORS
330
2FE6
102
}
330
2FE6
100
AcDbVisualStyle
  2
Facepattern
 70
    15
 71
     2
 72
     2
 73
     0
 90
        0
 40
-0.6
 41
-30.0
 62
     5
 63
     7
421
 16777215
 74
     1
 91
        4
 64
     7
 65
   257
 75
     1
175
     1
 42
1.0
 92
        8
 66
     7
 43
1.0
 76
     1
 77
     6
 78
     2
 67
     7
 79
     5
170
     0
171
     0
290
     0
174
     0
 93
        1
 44
0.0
173
     0
291
     1
 45
0.0
1001
ACAD
1000
AcDbSavedByObjectVersion
1070
     0
  0
VISUALSTYLE
  5
2FE7
102
{ACAD_REACTORS
330
2FE6
102
}
330
2FE6
100
AcDbVisualStyle
  2
Flat
 70
     0
 71
     2
 72
     1
 73
     1
 90
        2
 40
-0.6
 41
30.0
 62
     5
 63
     7
421
 16777215
 74
     0
 91
        4
 64
     7
 65
   257
 75
     1
175
     1
 42
1.0
 92
        8
 66
     7
 43
1.0
 76
     1
 77
     6
 78
     2
 67
     7
 79
     5
170
     0
171
     0
290
     0
174
     0
 93
       13
 44
0.0
173
     0
291
     1
 45
0.0
1001
ACAD
1000
AcDbSavedByObjectVersion
1070
     0
  0
VISUALSTYLE
  5
2FE8
102
{ACAD_REACTORS
330
2FE6
102
}
330
2FE6
100
AcDbVisualStyle
  2
FlatWithEdges
 70
     1
 71
     2
 72
     1
 73
     1
 90
        2
 40
-0.6
 41
30.0
 62
     5
 63
     7
421
 16777215
 74
     1
 91
        4
 64
     7
 65
   257
 75
     1
175
     1
 42
1.0
 92
        0
 66
   257
 43
1.0
 76
     1
 77
     6
 78
     2
 67
     7
 79
     5
170
     0
171
     0
290
     0
174
     0
 93
       13
 44
0.0
173
     0
291
     1
 45
0.0
1001
ACAD
1000
AcDbSavedByObjectVersion
1070
     0
  0
VISUALSTYLE
  5
2FE9
102
{ACAD_REACTORS
330
2FE6
102
}
330
2FE6
100
AcDbVisualStyle
  2
Gouraud
 70
     2
 71
     2
 72
     2
 73
     1
 90
        2
 40
-0.6
 41
30.0
 62
     5
 63
     7
421
 16777215
 74
     0
 91
        4
 64
     7
 65
   257
 75
     1
175
     1
 42
1.0
 92
        0
 66
     7
 43
1.0
 76
     1
 77
     6
 78
     2
 67
     7
 79
     5
170
     0
171
     0
290
     0
174
     0
 93
       13
 44
0.0
173
     0
291
     1
 45
0.0
1001
ACAD
1000
AcDbSavedByObjectVersion
1070
     0
  0
VISUALSTYLE
  5
2FEA
102
{ACAD_REACTORS
330
2FE6
102
}
330
2FE6
100
AcDbVisualStyle
  2
GouraudWithEdges
 70
     3
 71
     2
 72
     2
 73
     1
 90
        2
 40
-0.6
 41
30.0
 62
     5
 63
     7
421
 16777215
 74
     1
 91
        4
 64
     7
 65
   257
 75
     1
175
     1
 42
1.0
 92
        0
 66
   257
 43
1.0
 76
     1
 77
     6
 78
     2
 67
     7
 79
     5
170
     0
171
     0
290
     0
174
     0
 93
       13
 44
0.0
173
     0
291
     1
 45
0.0
1001
ACAD
1000
AcDbSavedByObjectVersion
1070
     0
  0
VISUALSTYLE
  5
2FF4
102
{ACAD_REACTORS
330
2FE6
102
}
330
2FE6
100
AcDbVisualStyle
  2
Linepattern
 70
    14
 71
     2
 72
     2
 73
     0
 90
        0
 40
-0.6
 41
-30.0
 62
     5
 63
     7
421
 16777215
 74
     1
 91
        4
 64
     7
 65
   257
 75
     7
175
     7
 42
1.0
 92
        8
 66
     7
 43
1.0
 76
     1
 77
     6
 78
     2
 67
     7
 79
     5
170
     0
171
     0
290
     0
174
     0
 93
        1
 44
0.0
173
     0
291
     1
 45
0.0
1001
ACAD
1000
AcDbSavedByObjectVersion
1070
     0
  0
VISUALSTYLE
  5
2FF0
102
{ACAD_REACTORS
330
2FE6
102
}
330
2FE6
100
AcDbVisualStyle
  2
Realistic
 70
     8
 71
     2
 72
     2
 73
     0
 90
        0
 40
-0.6
 41
-30.0
 62
     5
 63
     7
421
 16777215
 74
     1
 91
        0
 64
     7
 65
   257
 75
     1
175
     1
 42
1.0
 92
        8
 66
     8
424
  7895160
 43
1.0
 76
     1
 77
     6
 78
     2
 67
     7
 79
     5
170
     0
171
     0
290
     0
174
     0
 93
       13
 44
0.0
173
     0
291
     0
 45
0.0
1001
ACAD
1000
AcDbSavedByObjectVersion
1070
     0
  0
VISUALSTYLE
  5
2FF3
102
{ACAD_REACTORS
330
2FE6
102
}
330
2FE6
100
AcDbVisualStyle
  2
Thicken
 70
    13
 71
     2
 72
     2
 73
     0
 90
        0
 40
-0.6
 41
-30.0
 62
     5
 63
     7
421
 16777215
 74
     1
 91
        4
 64
     7
 65
   257
 75
     1
175
     1
 42
1.0
 92
       12
 66
     7
 43
1.0
 76
     1
 77
     6
 78
     2
 67
     7
 79
     5
170
     0
171
     0
290
     0
174
     0
 93
        1
 44
0.0
173
     0
291
     1
 45
0.0
1001
ACAD
1000
AcDbSavedByObjectVersion
1070
     0
  0
DICTIONARYVAR
  5
5EE
102
{ACAD_REACTORS
330
81
102
}
330
81
100
DictionaryVariables
280
     0
  1
STANDARD
  0
DICTIONARYVAR
  5
82
102
{ACAD_REACTORS
330
81
102
}
330
81
100
DictionaryVariables
280
     0
  1
1
  0
DICTIONARYVAR
  5
2FBC
102
{ACAD_REACTORS
330
81
102
}
330
81
100
DictionaryVariables
280
     0
  1

  0
DICTIONARY
  5
3006
330
2FE4
100
AcDbDictionary
280
     1
281
     1
  3
ACAD_XREC_ROUNDTRIP
360
3007
  0
DICTIONARY
  5
3004
330
2FE3
100
AcDbDictionary
280
     1
281
     1
  3
ACAD_XREC_ROUNDTRIP
360
3005
  0
DICTIONARY
  5
3008
330
2FE5
100
AcDbDictionary
280
     1
281
     1
  3
ACAD_XREC_ROUNDTRIP
360
3009
  0
DICTIONARY
  5
3002
330
5C4
100
AcDbDictionary
280
     1
281
     1
  3
ACAD_XREC_ROUNDTRIP
360
3003
  0
XRECORD
  5
3007
102
{ACAD_REACTORS
330
3006
102
}
330
3006
100
AcDbXrecord
280
     1
102
MATERIAL
148
0.0
149
0.0
149
0.0
 93
        0
 94
       63
282
     0
 72
     1
 77
     1
171
     1
175
     1
179
     1
273
     0
  0
XRECORD
  5
3005
102
{ACAD_REACTORS
330
3004
102
}
330
3004
100
AcDbXrecord
280
     1
102
MATERIAL
148
0.0
149
0.0
149
0.0
 93
        0
 94
       63
282
     0
 72
     1
 77
     1
171
     1
175
     1
179
     1
273
     0
  0
XRECORD
  5
3009
102
{ACAD_REACTORS
330
3008
102
}
330
3008
100
AcDbXrecord
280
     1
102
MATERIAL
148
0.0
149
0.0
149
0.0
 93
        0
 94
       63
282
     0
 72
     1
 77
     1
171
     1
175
     1
179
     1
273
     0
  0
XRECORD
  5
3003
102
{ACAD_REACTORS
330
3002
102
}
330
3002
100
AcDbXrecord
280
     1
102
ACAD_ROUNDTRIP_PRE2007_TABLESTYLE
 90
        4
 91
        0
  1

 92
        4
 93
        0
  2

 94
        4
 95
        0
  3

  0
ENDSEC
  0
EOF
