  0
SECTION
  2
HEADER
  9
$ACADVER
  1
AC1018
  9
$ACADMAINTVER
 70
   104
  9
$DWGCODEPAGE
  3
ANSI_1252
  9
$LASTSAVEDBY
  1
user
  9
$INSBASE
 10
0.0
 20
0.0
 30
0.0
  9
$EXTMIN
 10
1261.100772276513
 20
571.6479343446537
 30
0.0
  9
$EXTMAX
 10
1356.437459103751
 20
592.7056559015555
 30
0.0
  9
$LIMMIN
 10
0.0
 20
0.0
  9
$LIMMAX
 10
420.0
 20
297.0
  9
$ORTHOMODE
 70
     0
  9
$REGENMODE
 70
     1
  9
$FILLMODE
 70
     1
  9
$QTEXTMODE
 70
     0
  9
$MIRRTEXT
 70
     0
  9
$LTSCALE
 40
1.0
  9
$ATTMODE
 70
     1
  9
$TEXTSIZE
 40
0.3937
  9
$TRACEWID
 40
1.0
  9
$TEXTSTYLE
  7
\U+C2A4\U+D0C0\U+C77C2
  9
$CLAYER
  8
0
  9
$CELTYPE
  6
ByLayer
  9
$CECOLOR
 62
   256
  9
$CELTSCALE
 40
1.0
  9
$DISPSILH
 70
     0
  9
$DIMSCALE
 40
1.0
  9
$DIMASZ
 40
0.2
  9
$DIMEXO
 40
0.1
  9
$DIMDLI
 40
0.039
  9
$DIMRND
 40
0.0
  9
$DIMDLE
 40
0.0
  9
$DIMEXE
 40
0.2
  9
$DIMTP
 40
0.0
  9
$DIMTM
 40
0.0
  9
$DIMTXT
 40
2.5
  9
$DIMCEN
 40
0.039
  9
$DIMTSZ
 40
0.0
  9
$DIMTOL
 70
     0
  9
$DIMLIM
 70
     0
  9
$DIMTIH
 70
     0
  9
$DIMTOH
 70
     0
  9
$DIMSE1
 70
     0
  9
$DIMSE2
 70
     0
  9
$DIMTAD
 70
     1
  9
$DIMZIN
 70
     8
  9
$DIMBLK
  1

  9
$DIMASO
 70
     1
  9
$DIMSHO
 70
     1
  9
$DIMPOST
  1

  9
$DIMAPOST
  1

  9
$DIMALT
 70
     0
  9
$DIMALTD
 70
     2
  9
$DIMALTF
 40
0.0394
  9
$DIMLFAC
 40
1.0
  9
$DIMTOFL
 70
     1
  9
$DIMTVP
 40
1.0
  9
$DIMTIX
 70
     0
  9
$DIMSOXD
 70
     0
  9
$DIMSAH
 70
     0
  9
$DIMBLK1
  1

  9
$DIMBLK2
  1

  9
$DIMSTYLE
  2
DIN
  9
$DIMCLRD
 70
     0
  9
$DIMCLRE
 70
     0
  9
$DIMCLRT
 70
     0
  9
$DIMTFAC
 40
1.0
  9
$DIMGAP
 40
0.05
  9
$DIMJUST
 70
     0
  9
$DIMSD1
 70
     0
  9
$DIMSD2
 70
     0
  9
$DIMTOLJ
 70
     1
  9
$DIMTZIN
 70
     0
  9
$DIMALTZ
 70
     0
  9
$DIMALTTZ
 70
     0
  9
$DIMUPT
 70
     0
  9
$DIMDEC
 70
     4
  9
$DIMTDEC
 70
     4
  9
$DIMALTU
 70
     8
  9
$DIMALTTD
 70
     2
  9
$DIMTXSTY
  7
\U+C2A4\U+D0C0\U+C77C2
  9
$DIMAUNIT
 70
     0
  9
$DIMADEC
 70
     0
  9
$DIMALTRND
 40
0.0
  9
$DIMAZIN
 70
     0
  9
$DIMDSEP
 70
    46
  9
$DIMATFIT
 70
     3
  9
$DIMFRAC
 70
     0
  9
$DIMLDRBLK
  1

  9
$DIMLUNIT
 70
     6
  9
$DIMLWD
 70
    -2
  9
$DIMLWE
 70
    -2
  9
$DIMTMOVE
 70
     0
  9
$LUNITS
 70
     3
  9
$LUPREC
 70
     4
  9
$SKETCHINC
 40
1.0
  9
$FILLETRAD
 40
0.59
  9
$AUNITS
 70
     0
  9
$AUPREC
 70
     0
  9
$MENU
  1
.
  9
$ELEVATION
 40
0.0
  9
$PELEVATION
 40
0.0
  9
$THICKNESS
 40
0.0
  9
$LIMCHECK
 70
     0
  9
$CHAMFERA
 40
0.0
  9
$CHAMFERB
 40
0.0
  9
$CHAMFERC
 40
0.0
  9
$CHAMFERD
 40
0.0
  9
$SKPOLY
 70
     0
  9
$TDCREATE
 40
2454393.137688252
  9
$TDUCREATE
 40
2454393.346021586
  9
$TDUPDATE
 40
2458464.685982026
  9
$TDUUPDATE
 40
2458464.894315359
  9
$TDINDWG
 40
0.7713261458
  9
$TDUSRTIMER
 40
0.7713257870
  9
$USRTIMER
 70
     1
  9
$ANGBASE
 50
0.0
  9
$ANGDIR
 70
     0
  9
$PDMODE
 70
     0
  9
$PDSIZE
 40
0.0
  9
$PLINEWID
 40
0.0
  9
$SPLFRAME
 70
     0
  9
$SPLINETYPE
 70
     6
  9
$SPLINESEGS
 70
     8
  9
$HANDSEED
  5
23DB
  9
$SURFTAB1
 70
     6
  9
$SURFTAB2
 70
     6
  9
$SURFTYPE
 70
     6
  9
$SURFU
 70
     6
  9
$SURFV
 70
     6
  9
$UCSBASE
  2

  9
$UCSNAME
  2

  9
$UCSORG
 10
0.0
 20
0.0
 30
0.0
  9
$UCSXDIR
 10
1.0
 20
0.0
 30
0.0
  9
$UCSYDIR
 10
0.0
 20
1.0
 30
0.0
  9
$UCSORTHOREF
  2

  9
$UCSORTHOVIEW
 70
     0
  9
$UCSORGTOP
 10
0.0
 20
0.0
 30
0.0
  9
$UCSORGBOTTOM
 10
0.0
 20
0.0
 30
0.0
  9
$UCSORGLEFT
 10
0.0
 20
0.0
 30
0.0
  9
$UCSORGRIGHT
 10
0.0
 20
0.0
 30
0.0
  9
$UCSORGFRONT
 10
0.0
 20
0.0
 30
0.0
  9
$UCSORGBACK
 10
0.0
 20
0.0
 30
0.0
  9
$PUCSBASE
  2

  9
$PUCSNAME
  2

  9
$PUCSORG
 10
0.0
 20
0.0
 30
0.0
  9
$PUCSXDIR
 10
1.0
 20
0.0
 30
0.0
  9
$PUCSYDIR
 10
0.0
 20
1.0
 30
0.0
  9
$PUCSORTHOREF
  2

  9
$PUCSORTHOVIEW
 70
     0
  9
$PUCSORGTOP
 10
0.0
 20
0.0
 30
0.0
  9
$PUCSORGBOTTOM
 10
0.0
 20
0.0
 30
0.0
  9
$PUCSORGLEFT
 10
0.0
 20
0.0
 30
0.0
  9
$PUCSORGRIGHT
 10
0.0
 20
0.0
 30
0.0
  9
$PUCSORGFRONT
 10
0.0
 20
0.0
 30
0.0
  9
$PUCSORGBACK
 10
0.0
 20
0.0
 30
0.0
  9
$USERI1
 70
     0
  9
$USERI2
 70
     0
  9
$USERI3
 70
     0
  9
$USERI4
 70
     0
  9
$USERI5
 70
     0
  9
$USERR1
 40
0.0
  9
$USERR2
 40
0.0
  9
$USERR3
 40
0.0
  9
$USERR4
 40
0.0
  9
$USERR5
 40
0.0
  9
$WORLDVIEW
 70
     1
  9
$SHADEDGE
 70
     3
  9
$SHADEDIF
 70
    70
  9
$TILEMODE
 70
     1
  9
$MAXACTVP
 70
    64
  9
$PINSBASE
 10
0.0
 20
0.0
 30
0.0
  9
$PLIMCHECK
 70
     0
  9
$PEXTMIN
 10
1.000000000000000E+20
 20
1.000000000000000E+20
 30
1.000000000000000E+20
  9
$PEXTMAX
 10
-1.000000000000000E+20
 20
-1.000000000000000E+20
 30
-1.000000000000000E+20
  9
$PLIMMIN
 10
0.0071835950613108
 20
0.0009369707933118
  9
$PLIMMAX
 10
841.0071835950612
 20
594.0009369707931
  9
$UNITMODE
 70
     0
  9
$VISRETAIN
 70
     1
  9
$PLINEGEN
 70
     0
  9
$PSLTSCALE
 70
     1
  9
$TREEDEPTH
 70
  3020
  9
$CMLSTYLE
  2
Standard
  9
$CMLJUST
 70
     0
  9
$CMLSCALE
 40
20.0
  9
$PROXYGRAPHICS
 70
     1
  9
$MEASUREMENT
 70
     1
  9
$CELWEIGHT
370
    -1
  9
$ENDCAPS
280
     0
  9
$JOINSTYLE
280
     0
  9
$LWDISPLAY
290
     0
  9
$INSUNITS
 70
     1
  9
$HYPERLINKBASE
  1

  9
$STYLESHEET
  1

  9
$XEDIT
290
     1
  9
$CEPSNTYPE
380
     0
  9
$PSTYLEMODE
290
     1
  9
$FINGERPRINTGUID
  2
{AC2FA5CB-6F18-4BC2-9C5F-F25C10372E5B}
  9
$VERSIONGUID
  2
{69637B01-88A0-4E41-9190-BEEA5B44F5AD}
  9
$EXTNAMES
290
     1
  9
$PSVPSCALE
 40
0.0
  9
$OLESTARTUP
290
     0
  9
$SORTENTS
280
   127
  9
$INDEXCTL
280
     0
  9
$HIDETEXT
280
     0
  9
$XCLIPFRAME
290
     0
  9
$HALOGAP
280
     0
  9
$OBSCOLOR
 70
   257
  9
$OBSLTYPE
280
     0
  9
$INTERSECTIONDISPLAY
280
     0
  9
$INTERSECTIONCOLOR
 70
   257
  9
$DIMASSOC
280
     1
  9
$PROJECTNAME
  1

  0
ENDSEC
  0
SECTION
  2
CLASSES
  0
CLASS
  1
ACDBDICTIONARYWDFLT
  2
AcDbDictionaryWithDefault
  3
ObjectDBX Classes
 90
        0
 91
        1
280
     0
281
     0
  0
CLASS
  1
PLOTSETTINGS
  2
AcDbPlotSettings
  3
ObjectDBX Classes
 90
        0
 91
        0
280
     0
281
     0
  0
CLASS
  1
DICTIONARYVAR
  2
AcDbDictionaryVar
  3
ObjectDBX Classes
 90
        0
 91
        3
280
     0
281
     0
  0
CLASS
  1
TABLESTYLE
  2
AcDbTableStyle
  3
ObjectDBX Classes
 90
     4095
 91
        1
280
     0
281
     0
  0
CLASS
  1
DIMASSOC
  2
AcDbDimAssoc
  3
"AcDbDimAssoc|Product Desc:     AcDim ARX App For Dimension|Company:          Autodesk, Inc.|WEB Address:      www.autodesk.com"
 90
        0
 91
        0
280
     0
281
     0
  0
CLASS
  1
SORTENTSTABLE
  2
AcDbSortentsTable
  3
ObjectDBX Classes
 90
        0
 91
        3
280
     0
281
     0
  0
CLASS
  1
MATERIAL
  2
AcDbMaterial
  3
ObjectDBX Classes
 90
     1024
 91
        3
280
     0
281
     0
  0
CLASS
  1
VISUALSTYLE
  2
AcDbVisualStyle
  3
ObjectDBX Classes
 90
     4095
 91
       16
280
     0
281
     0
  0
ENDSEC
  0
SECTION
  2
TABLES
  0
TABLE
  2
VPORT
  5
19
330
0
100
AcDbSymbolTable
 70
     1
  0
VPORT
  5
2274
330
19
100
AcDbSymbolTableRecord
100
AcDbViewportTableRecord
  2
*Active
 70
     0
 10
0.0
 20
0.0
 11
1.0
 21
1.0
 12
1278.934091968105
 22
582.2983235839813
 13
0.0
 23
0.0
 14
10.0
 24
10.0
 15
10.0
 25
10.0
 16
0.0
 26
0.0
 36
1.0
 17
0.0
 27
0.0
 37
0.0
 40
32.35294579949807
 41
2.939613526570048
 42
50.0
 43
0.0
 44
0.0
 50
0.0
 51
0.0
 71
     0
 72
  1000
 73
     1
 74
     3
 75
     0
 76
     0
 77
     0
 78
     0
281
     0
 65
     1
110
0.0
120
0.0
130
0.0
111
1.0
121
0.0
131
0.0
112
0.0
122
1.0
132
0.0
 79
     0
146
0.0
  0
ENDTAB
  0
TABLE
  2
LTYPE
  5
14
330
0
100
AcDbSymbolTable
 70
     3
  0
LTYPE
  5
15
330
14
100
AcDbSymbolTableRecord
100
AcDbLinetypeTableRecord
  2
ByBlock
 70
     0
  3

 72
    65
 73
     0
 40
0.0
  0
LTYPE
  5
16
330
14
100
AcDbSymbolTableRecord
100
AcDbLinetypeTableRecord
  2
ByLayer
 70
     0
  3

 72
    65
 73
     0
 40
0.0
  0
LTYPE
  5
8
330
14
100
AcDbSymbolTableRecord
100
AcDbLinetypeTableRecord
  2
Continuous
 70
     0
  3
Solid line
 72
    65
 73
     0
 40
0.0
  0
LTYPE
  5
1811
330
14
100
AcDbSymbolTableRecord
100
AcDbLinetypeTableRecord
  2
ACAD_ISO04W100
 70
     0
  3
ISO long-dash dot ____ . ____ . ____ . ____ . _
 72
    65
 73
     4
 40
30.0
 49
24.0
 74
     0
 49
-3.0
 74
     0
 49
0.0
 74
     0
 49
-3.0
 74
     0
  0
LTYPE
  5
22C8
330
14
100
AcDbSymbolTableRecord
100
AcDbLinetypeTableRecord
  2
ACAD_ISO08W100
 70
     0
  3
ISO long-dash short-dash ____ __ ____ __ ____ _
 72
    65
 73
     4
 40
36.0
 49
24.0
 74
     0
 49
-3.0
 74
     0
 49
6.0
 74
     0
 49
-3.0
 74
     0
  0
ENDTAB
  0
TABLE
  2
LAYER
  5
10
102
{ACAD_XDICTIONARY
360
1C73
102
}
330
0
100
AcDbSymbolTable
 70
     9
  0
LAYER
  5
4
330
10
100
AcDbSymbolTableRecord
100
AcDbLayerTableRecord
  2
0
 70
     0
 62
     7
  6
Continuous
370
    -3
390
5
  0
LAYER
  5
8E
330
10
100
AcDbSymbolTableRecord
100
AcDbLayerTableRecord
  2
07
 70
     0
 62
     7
  6
Continuous
370
    -3
390
5
  0
LAYER
  5
8F
330
10
100
AcDbSymbolTableRecord
100
AcDbLayerTableRecord
  2
035
 70
     0
 62
     5
  6
Continuous
370
    -3
390
5
  0
LAYER
  5
90
330
10
100
AcDbSymbolTableRecord
100
AcDbLayerTableRecord
  2
05
 70
     0
 62
     6
  6
Continuous
370
    -3
390
5
  0
LAYER
  5
91
330
10
100
AcDbSymbolTableRecord
100
AcDbLayerTableRecord
  2
025
 70
     0
 62
     1
  6
Continuous
370
    -3
390
5
  0
LAYER
  5
5CE
330
10
100
AcDbSymbolTableRecord
100
AcDbLayerTableRecord
  2
Defpoints
 70
     0
 62
     7
  6
Continuous
290
     0
370
    -3
390
5
  0
LAYER
  5
62B
330
10
100
AcDbSymbolTableRecord
100
AcDbLayerTableRecord
  2
\U+7C97\U+5B9E\U+7EBF
 70
     0
 62
     7
  6
Continuous
370
    30
390
5
  0
LAYER
  5
62C
330
10
100
AcDbSymbolTableRecord
100
AcDbLayerTableRecord
  2
\U+6807\U+6CE8\U+7EBF
 70
     0
 62
     7
  6
Continuous
370
    13
390
5
  0
LAYER
  5
1812
330
10
100
AcDbSymbolTableRecord
100
AcDbLayerTableRecord
  2
\U+4E2D\U+5FC3\U+7EBF
 70
     0
 62
     7
  6
ACAD_ISO04W100
370
    18
390
5
  0
ENDTAB
  0
TABLE
  2
STYLE
  5
11
330
0
100
AcDbSymbolTable
 70
     8
  0
STYLE
  5
12
330
11
100
AcDbSymbolTableRecord
100
AcDbTextStyleTableRecord
  2
Standard
 70
     0
 40
0.0
 41
1.0
 50
0.0
 71
     0
 42
2.5
  3
txt
  4

  0
STYLE
  5
31
330
11
100
AcDbSymbolTableRecord
100
AcDbTextStyleTableRecord
  2
ISO Proportional
 70
     0
 40
0.0
 41
1.0
 50
0.0
 71
     0
 42
2.5
  3
isocp.shx
  4

  0
STYLE
  5
B96
330
11
100
AcDbSymbolTableRecord
100
AcDbTextStyleTableRecord
  2
\U+C2A4\U+D0C0\U+C77C1
 70
     0
 40
0.1968
 41
1.0
 50
0.0
 71
     0
 42
2.5
  3
txt.shx
  4

  0
STYLE
  5
B97
330
11
100
AcDbSymbolTableRecord
100
AcDbTextStyleTableRecord
  2
\U+C2A4\U+D0C0\U+C77C2
 70
     0
 40
0.3937
 41
1.0
 50
0.0
 71
     0
 42
0.3937
  3
txt.shx
  4

  0
STYLE
  5
22C9
330
11
100
AcDbSymbolTableRecord
100
AcDbTextStyleTableRecord
  2
STYLE1
 70
     0
 40
1.0
 41
1.0
 50
0.0
 71
     0
 42
27.32712548649579
  3
SIMPLEX.shx
  4

  0
STYLE
  5
22CA
330
11
100
AcDbSymbolTableRecord
100
AcDbTextStyleTableRecord
  2
STYLE2
 70
     0
 40
2.0
 41
1.0
 50
0.0
 71
     0
 42
27.32712548649579
  3
SIMPLEX.shx
  4

  0
STYLE
  5
22CB
330
11
100
AcDbSymbolTableRecord
100
AcDbTextStyleTableRecord
  2
STYLE5
 70
     0
 40
5.0
 41
1.0
 50
0.0
 71
     0
 42
5.0
  3
SIMPLEX.shx
  4

  0
STYLE
  5
22CC
330
11
100
AcDbSymbolTableRecord
100
AcDbTextStyleTableRecord
  2
STYLE10
 70
     0
 40
10.0
 41
1.0
 50
0.0
 71
     0
 42
27.32712548649579
  3
SIMPLEX.shx
  4

  0
ENDTAB
  0
TABLE
  2
VIEW
  5
17
330
0
100
AcDbSymbolTable
 70
     0
  0
ENDTAB
  0
TABLE
  2
UCS
  5
18
330
0
100
AcDbSymbolTable
 70
     0
  0
ENDTAB
  0
TABLE
  2
APPID
  5
1B
330
0
100
AcDbSymbolTable
 70
    13
  0
APPID
  5
1C
330
1B
100
AcDbSymbolTableRecord
100
AcDbRegAppTableRecord
  2
ACAD
 70
     0
  0
APPID
  5
346
330
1B
100
AcDbSymbolTableRecord
100
AcDbRegAppTableRecord
  2
GENIUS_GENTRA_14
 70
     0
  0
APPID
  5
347
330
1B
100
AcDbSymbolTableRecord
100
AcDbRegAppTableRecord
  2
GENIUS_GENODEF_13
 70
     0
  0
APPID
  5
348
330
1B
100
AcDbSymbolTableRecord
100
AcDbRegAppTableRecord
  2
GENIUS_GENOBJ-N-TIT_13
 70
     0
  0
APPID
  5
349
330
1B
100
AcDbSymbolTableRecord
100
AcDbRegAppTableRecord
  2
GENIUS_GENTITLE_13
 70
     0
  0
APPID
  5
34A
330
1B
100
AcDbSymbolTableRecord
100
AcDbRegAppTableRecord
  2
GENIUS_GENOENT_13
 70
     0
  0
APPID
  5
34B
330
1B
100
AcDbSymbolTableRecord
100
AcDbRegAppTableRecord
  2
GENIUS_GENOREF_13
 70
     0
  0
APPID
  5
34C
330
1B
100
AcDbSymbolTableRecord
100
AcDbRegAppTableRecord
  2
GENIUS_GENOLIS_13
 70
     0
  0
APPID
  5
34D
330
1B
100
AcDbSymbolTableRecord
100
AcDbRegAppTableRecord
  2
GENIUS_GENOBJ-N-SDF_13
 70
     0
  0
APPID
  5
34E
330
1B
100
AcDbSymbolTableRecord
100
AcDbRegAppTableRecord
  2
GENIUS_GENSCREG_13
 70
     0
  0
APPID
  5
886
330
1B
100
AcDbSymbolTableRecord
100
AcDbRegAppTableRecord
  2
ACAD_DSTYLE_DIMTEXT_FILL
 70
     0
  0
APPID
  5
B8B
330
1B
100
AcDbSymbolTableRecord
100
AcDbRegAppTableRecord
  2
ACAD_PSEXT
 70
     0
  0
APPID
  5
22D0
330
1B
100
AcDbSymbolTableRecord
100
AcDbRegAppTableRecord
  2
AcadStringInfo
 70
     0
  0
ENDTAB
  0
TABLE
  2
DIMSTYLE
  5
1D
330
0
100
AcDbSymbolTable
 70
     7
100
AcDbDimStyleTable
 71
     1
340
1E
  0
DIMSTYLE
105
1E
330
1D
100
AcDbSymbolTableRecord
100
AcDbDimStyleTableRecord
  2
DIN
 70
     0
 41
2.5
 42
0.625
 43
3.75
 44
1.25
 74
     0
 77
     1
 78
     8
140
2.5
141
2.5
143
0.0394
145
1.0
147
0.625
172
     1
273
     8
277
     6
340
12
  0
DIMSTYLE
105
62D
330
1D
100
AcDbSymbolTableRecord
100
AcDbDimStyleTableRecord
  2
ISO-25
 70
     0
 41
10.0
 42
0.625
 43
3.75
 44
10.0
 73
     0
 74
     0
 77
     1
 78
     8
140
20.0
141
2.5
143
0.03937007874016
147
10.0
171
     3
172
     1
271
     2
272
     2
274
     3
278
    44
279
     1
283
     0
284
     8
340
12
  0
DIMSTYLE
105
62E
330
1D
100
AcDbSymbolTableRecord
100
AcDbDimStyleTableRecord
  2
\U+526F\U+672CISO-25
 70
     0
 41
15.0
 42
0.625
 43
3.75
 44
2.0
 73
     0
 74
     0
 77
     1
 78
     8
140
22.0
141
2.5
143
0.03937007874016
147
10.0
171
     3
179
     1
271
     1
272
     1
274
     3
278
    44
279
     1
283
     0
284
     8
340
12
  0
DIMSTYLE
105
62F
330
1D
100
AcDbSymbolTableRecord
100
AcDbDimStyleTableRecord
  2
\U+526F\U+672C (2)ISO-25
 70
     0
 41
10.0
 42
0.625
 43
3.75
 44
10.0
 73
     0
 74
     0
 77
     1
 78
     8
140
10.0
141
2.5
143
0.03937007874016
147
10.0
171
     3
172
     1
271
     2
272
     2
274
     3
278
    44
283
     0
284
     8
340
12
  0
DIMSTYLE
105
22CD
330
1D
100
AcDbSymbolTableRecord
100
AcDbDimStyleTableRecord
  2
5
 70
     0
 41
3.0
 42
2.0
 43
10.0
 44
2.0
 73
     0
 74
     0
 77
     1
 78
     8
140
5.0
141
0.0
147
1.0
176
   256
177
   256
178
   256
271
     2
272
     2
279
     2
284
     8
285
     8
286
     8
340
22CB
  0
DIMSTYLE
105
22CE
102
{ACAD_REACTORS
330
22EB
330
22EA
330
237F
330
2380
102
}
330
1D
100
AcDbSymbolTableRecord
100
AcDbDimStyleTableRecord
  2
1
 70
     0
 41
1.0
 42
1.0
 44
2.0
 73
     0
 74
     0
 77
     1
 78
     8
140
5.0
141
0.0
147
2.0
176
     4
177
     4
178
     4
271
     2
272
     2
279
     2
284
     8
285
     8
286
     8
340
22CA
  0
DIMSTYLE
105
22CF
330
1D
100
AcDbSymbolTableRecord
100
AcDbDimStyleTableRecord
  2
10
 70
     0
 41
3.0
 42
2.0
 44
2.0
 73
     0
 74
     0
 77
     1
 78
     8
140
10.0
147
2.0
176
   256
177
   256
178
   256
179
     1
271
     2
272
     2
279
     2
284
     8
285
     8
286
     8
340
22CC
  0
ENDTAB
  0
TABLE
  2
BLOCK_RECORD
  5
1
330
0
100
AcDbSymbolTable
 70
    17
  0
BLOCK_RECORD
  5
2
102
{ACAD_XDICTIONARY
360
95E
102
}
330
1
100
AcDbSymbolTableRecord
100
AcDbBlockTableRecord
  2
*Model_Space
340
A
  0
BLOCK_RECORD
  5
C
330
1
100
AcDbSymbolTableRecord
100
AcDbBlockTableRecord
  2
*Paper_Space
340
F
  0
BLOCK_RECORD
  5
21DB
330
1
100
AcDbSymbolTableRecord
100
AcDbBlockTableRecord
  2
*D0
340
0
  0
BLOCK_RECORD
  5
21E4
330
1
100
AcDbSymbolTableRecord
100
AcDbBlockTableRecord
  2
*D1
340
0
  0
BLOCK_RECORD
  5
21ED
330
1
100
AcDbSymbolTableRecord
100
AcDbBlockTableRecord
  2
*D2
340
0
  0
BLOCK_RECORD
  5
21F6
330
1
100
AcDbSymbolTableRecord
100
AcDbBlockTableRecord
  2
*D3
340
0
  0
BLOCK_RECORD
  5
2203
330
1
100
AcDbSymbolTableRecord
100
AcDbBlockTableRecord
  2
*D4
340
0
  0
BLOCK_RECORD
  5
2210
330
1
100
AcDbSymbolTableRecord
100
AcDbBlockTableRecord
  2
*D5
340
0
  0
BLOCK_RECORD
  5
221D
330
1
100
AcDbSymbolTableRecord
100
AcDbBlockTableRecord
  2
*D6
340
0
  0
BLOCK_RECORD
  5
22B0
330
1
100
AcDbSymbolTableRecord
100
AcDbBlockTableRecord
  2
*D7
340
0
  0
BLOCK_RECORD
  5
22BC
330
1
100
AcDbSymbolTableRecord
100
AcDbBlockTableRecord
  2
*D8
340
0
  0
BLOCK_RECORD
  5
230B
330
1
100
AcDbSymbolTableRecord
100
AcDbBlockTableRecord
  2
*D10
340
0
  0
BLOCK_RECORD
  5
2317
330
1
100
AcDbSymbolTableRecord
100
AcDbBlockTableRecord
  2
*D11
340
0
  0
BLOCK_RECORD
  5
2337
330
1
100
AcDbSymbolTableRecord
100
AcDbBlockTableRecord
  2
*D12
340
0
  0
BLOCK_RECORD
  5
2344
330
1
100
AcDbSymbolTableRecord
100
AcDbBlockTableRecord
  2
*D13
340
0
  0
BLOCK_RECORD
  5
2381
330
1
100
AcDbSymbolTableRecord
100
AcDbBlockTableRecord
  2
*D15
340
0
  0
BLOCK_RECORD
  5
238E
330
1
100
AcDbSymbolTableRecord
100
AcDbBlockTableRecord
  2
*D16
340
0
  0
ENDTAB
  0
ENDSEC
  0
SECTION
  2
BLOCKS
  0
BLOCK
  5
3
330
2
100
AcDbEntity
  8
0
100
AcDbBlockBegin
  2
*Model_Space
 70
     2
 10
0.0
 20
0.0
 30
0.0
  3
*Model_Space
  1

  0
ENDBLK
  5
9
330
2
100
AcDbEntity
  8
0
100
AcDbBlockEnd
  0
BLOCK
  5
D
330
C
100
AcDbEntity
 67
     1
  8
0
100
AcDbBlockBegin
  2
*Paper_Space
 70
     0
 10
0.0
 20
0.0
 30
0.0
  3
*Paper_Space
  1

  0
ENDBLK
  5
E
330
C
100
AcDbEntity
 67
     1
  8
0
100
AcDbBlockEnd
  0
BLOCK
  5
21E1
330
21DB
100
AcDbEntity
  8
0
100
AcDbBlockBegin
  2
*D0
 70
     1
 10
0.0
 20
0.0
 30
0.0
  3
*D0
  1

  0
LINE
  5
21DC
330
21DB
100
AcDbEntity
  8
0
 62
     0
370
    -2
100
AcDbLine
 10
1264.180798657291
 20
588.821810734568
 30
0.0
 11
1262.202063950111
 21
591.0559144176716
 31
0.0
  0
MTEXT
  5
21DD
330
21DB
100
AcDbEntity
  8
0
 62
     0
100
AcDbMText
 10
1263.549336621201
 20
589.9070746791811
 30
0.0
 40
0.3937
 41
0.0
 71
     5
 72
     1
  1
\A1;R3.2283
  7
\U+C2A4\U+D0C0\U+C77C2
 11
0.6630272009925759
 21
-0.7485953050507
 31
0.0
 73
     1
 44
1.0
  0
SOLID
  5
21DE
330
21DB
100
AcDbEntity
  8
0
 62
     0
100
AcDbTrace
 10
1262.227017126947
 20
591.0780153243712
 30
0.0
 11
1262.177110773276
 21
591.0338135109721
 31
0.0
 12
1262.069458509913
 22
591.2056334786817
 32
0.0
 13
1262.069458509913
 23
591.2056334786817
 33
0.0
  0
POINT
  5
21DF
330
21DB
100
AcDbEntity
  8
Defpoints
 62
     0
100
AcDbPoint
 10
1262.069458509913
 20
591.2056334786817
 30
0.0
  0
POINT
  5
21E0
330
21DB
100
AcDbEntity
  8
Defpoints
 62
     0
100
AcDbPoint
 10
1264.209935743965
 20
588.7889133115749
 30
0.0
  0
ENDBLK
  5
21E2
330
21DB
100
AcDbEntity
  8
0
100
AcDbBlockEnd
  0
BLOCK
  5
21EA
330
21E4
100
AcDbEntity
  8
0
100
AcDbBlockBegin
  2
*D1
 70
     1
 10
0.0
 20
0.0
 30
0.0
  3
*D1
  1

  0
LINE
  5
21E5
330
21E4
100
AcDbEntity
  8
0
 62
     0
370
    -2
100
AcDbLine
 10
1265.470842276514
 20
589.1408634456937
 30
0.0
 11
1265.470842276514
 21
591.9342967790272
 31
0.0
  0
MTEXT
  5
21E6
330
21E4
100
AcDbEntity
  8
0
 62
     0
100
AcDbMText
 10
1265.223992276514
 20
590.4375801123608
 30
0.0
 40
0.3937
 41
0.0
 71
     5
 72
     1
  1
\A1;R10.0787
  7
\U+C2A4\U+D0C0\U+C77C2
 11
0.0000000000000001
 21
1.0
 31
0.0
 73
     1
 44
1.0
  0
SOLID
  5
21E7
330
21E4
100
AcDbEntity
  8
0
 62
     0
100
AcDbTrace
 10
1265.437508943181
 20
591.9342967790272
 30
0.0
 11
1265.504175609847
 21
591.9342967790272
 31
0.0
 12
1265.470842276514
 22
592.1342967790272
 32
0.0
 13
1265.470842276514
 23
592.1342967790272
 33
0.0
  0
POINT
  5
21E8
330
21E4
100
AcDbEntity
  8
Defpoints
 62
     0
100
AcDbPoint
 10
1265.470842276514
 20
592.1342967790272
 30
0.0
  0
POINT
  5
21E9
330
21E4
100
AcDbEntity
  8
Defpoints
 62
     0
100
AcDbPoint
 10
1265.470842276514
 20
582.0555767790271
 30
0.0
  0
ENDBLK
  5
21EB
330
21E4
100
AcDbEntity
  8
0
100
AcDbBlockEnd
  0
BLOCK
  5
21F3
330
21ED
100
AcDbEntity
  8
0
100
AcDbBlockBegin
  2
*D2
 70
     1
 10
0.0
 20
0.0
 30
0.0
  3
*D2
  1

  0
LINE
  5
21EE
330
21ED
100
AcDbEntity
  8
0
 62
     0
370
    -2
100
AcDbLine
 10
1263.861721135424
 20
587.758051524629
 30
0.0
 11
1261.06976056419
 21
587.8487485833021
 31
0.0
  0
MTEXT
  5
21EF
330
21ED
100
AcDbEntity
  8
0
 62
     0
100
AcDbMText
 10
1262.573702841403
 20
588.0468731138112
 30
0.0
 40
0.3937
 41
0.0
 71
     5
 72
     1
  1
\A1;R10.0787
  7
\U+C2A4\U+D0C0\U+C77C2
 11
0.9994727770726928
 21
-0.0324679517462932
 31
0.0
 73
     1
 44
1.0
  0
SOLID
  5
21F0
330
21ED
100
AcDbEntity
  8
0
 62
     0
100
AcDbTrace
 10
1261.070842829248
 20
587.8820643425378
 30
0.0
 11
1261.068678299132
 21
587.8154328240664
 31
0.0
 12
1260.869866008776
 22
587.8552421736514
 32
0.0
 13
1260.869866008776
 23
587.8552421736514
 33
0.0
  0
POINT
  5
21F1
330
21ED
100
AcDbEntity
  8
Defpoints
 62
     0
100
AcDbPoint
 10
1260.869866008776
 20
587.8552421736514
 30
0.0
  0
POINT
  5
21F2
330
21ED
100
AcDbEntity
  8
Defpoints
 62
     0
100
AcDbPoint
 10
1270.94327227651
 20
587.528006779027
 30
0.0
  0
ENDBLK
  5
21F4
330
21ED
100
AcDbEntity
  8
0
100
AcDbBlockEnd
  0
BLOCK
  5
2200
330
21F6
100
AcDbEntity
  8
0
100
AcDbBlockBegin
  2
*D3
 70
     1
 10
0.0
 20
0.0
 30
0.0
  3
*D3
  1

  0
LINE
  5
2252
330
21F6
100
AcDbEntity
  8
0
 62
     0
370
    -2
100
AcDbLine
 10
1277.822786276508
 20
576.1500767790272
 30
0.0
 11
1283.183117062684
 21
576.1500767790272
 31
0.0
  0
LINE
  5
2253
330
21F6
100
AcDbEntity
  8
0
 62
     0
370
    -2
100
AcDbLine
 10
1277.822786276508
 20
591.8980767790272
 30
0.0
 11
1283.183117062684
 21
591.898076779027
 31
0.0
  0
LINE
  5
2254
330
21F6
100
AcDbEntity
  8
0
 62
     0
370
    -2
100
AcDbLine
 10
1282.983117062684
 20
576.3500767790272
 30
0.0
 11
1282.983117062684
 21
591.6980767790271
 31
0.0
  0
SOLID
  5
2255
330
21F6
100
AcDbEntity
  8
0
 62
     0
100
AcDbTrace
 10
1282.949783729351
 20
576.3500767790272
 30
0.0
 11
1283.016450396017
 21
576.3500767790272
 31
0.0
 12
1282.983117062684
 22
576.1500767790272
 32
0.0
 13
1282.983117062684
 23
576.1500767790272
 33
0.0
  0
SOLID
  5
2256
330
21F6
100
AcDbEntity
  8
0
 62
     0
100
AcDbTrace
 10
1282.949783729351
 20
591.6980767790271
 30
0.0
 11
1283.016450396017
 21
591.6980767790271
 31
0.0
 12
1282.983117062684
 22
591.898076779027
 32
0.0
 13
1282.983117062684
 23
591.898076779027
 33
0.0
  0
MTEXT
  5
2257
330
21F6
100
AcDbEntity
  8
0
 62
     0
100
AcDbMText
 10
1282.736267062684
 20
584.0240767790275
 30
0.0
 40
0.3937
 41
0.0
 71
     5
 72
     1
  1
\A1;15.748
  7
\U+C2A4\U+D0C0\U+C77C2
 11
0.0000000000000001
 21
1.0
 31
0.0
 73
     1
 44
1.0
  0
POINT
  5
2258
330
21F6
100
AcDbEntity
  8
Defpoints
 62
     0
100
AcDbPoint
 10
1277.722786276508
 20
576.1500767790272
 30
0.0
  0
POINT
  5
2259
330
21F6
100
AcDbEntity
  8
Defpoints
 62
     0
100
AcDbPoint
 10
1277.722786276508
 20
591.8980767790272
 30
0.0
  0
POINT
  5
225A
330
21F6
100
AcDbEntity
  8
Defpoints
 62
     0
100
AcDbPoint
 10
1282.983117062684
 20
591.898076779027
 30
0.0
  0
ENDBLK
  5
2201
330
21F6
100
AcDbEntity
  8
0
100
AcDbBlockEnd
  0
BLOCK
  5
220D
330
2203
100
AcDbEntity
  8
0
100
AcDbBlockBegin
  2
*D4
 70
     1
 10
0.0
 20
0.0
 30
0.0
  3
*D4
  1

  0
LINE
  5
2204
330
2203
100
AcDbEntity
  8
0
 62
     0
370
    -2
100
AcDbLine
 10
1277.822786276508
 20
575.9138567790272
 30
0.0
 11
1284.036098418881
 21
575.9138567790272
 31
0.0
  0
LINE
  5
2205
330
2203
100
AcDbEntity
  8
0
 62
     0
370
    -2
100
AcDbLine
 10
1277.822786276508
 20
592.1342967790272
 30
0.0
 11
1284.036098418881
 21
592.1342967790272
 31
0.0
  0
LINE
  5
2206
330
2203
100
AcDbEntity
  8
0
 62
     0
370
    -2
100
AcDbLine
 10
1283.836098418881
 20
576.1138567790273
 30
0.0
 11
1283.836098418881
 21
591.9342967790271
 31
0.0
  0
SOLID
  5
2207
330
2203
100
AcDbEntity
  8
0
 62
     0
100
AcDbTrace
 10
1283.802765085547
 20
576.1138567790273
 30
0.0
 11
1283.869431752214
 21
576.1138567790273
 31
0.0
 12
1283.836098418881
 22
575.9138567790272
 32
0.0
 13
1283.836098418881
 23
575.9138567790272
 33
0.0
  0
SOLID
  5
2208
330
2203
100
AcDbEntity
  8
0
 62
     0
100
AcDbTrace
 10
1283.802765085547
 20
591.9342967790271
 30
0.0
 11
1283.869431752214
 21
591.9342967790271
 31
0.0
 12
1283.836098418881
 22
592.1342967790272
 32
0.0
 13
1283.836098418881
 23
592.1342967790272
 33
0.0
  0
MTEXT
  5
2209
330
2203
100
AcDbEntity
  8
0
 62
     0
100
AcDbMText
 10
1283.58924841888
 20
584.0240767790275
 30
0.0
 40
0.3937
 41
0.0
 71
     5
 72
     1
  1
\A1;16.2204
  7
\U+C2A4\U+D0C0\U+C77C2
 11
0.0000000000000001
 21
1.0
 31
0.0
 73
     1
 44
1.0
  0
POINT
  5
220A
330
2203
100
AcDbEntity
  8
Defpoints
 62
     0
100
AcDbPoint
 10
1277.722786276508
 20
575.9138567790272
 30
0.0
  0
POINT
  5
220B
330
2203
100
AcDbEntity
  8
Defpoints
 62
     0
100
AcDbPoint
 10
1277.722786276508
 20
592.1342967790272
 30
0.0
  0
POINT
  5
220C
330
2203
100
AcDbEntity
  8
Defpoints
 62
     0
100
AcDbPoint
 10
1283.836098418881
 20
592.1342967790272
 30
0.0
  0
ENDBLK
  5
220E
330
2203
100
AcDbEntity
  8
0
100
AcDbBlockEnd
  0
BLOCK
  5
221A
330
2210
100
AcDbEntity
  8
0
100
AcDbBlockBegin
  2
*D5
 70
     1
 10
0.0
 20
0.0
 30
0.0
  3
*D5
  1

  0
LINE
  5
2249
330
2210
100
AcDbEntity
  8
0
 62
     0
370
    -2
100
AcDbLine
 10
1261.100772276514
 20
580.4201467790273
 30
0.0
 11
1261.100772276514
 21
574.8654706308789
 31
0.0
  0
LINE
  5
224A
330
2210
100
AcDbEntity
  8
0
 62
     0
370
    -2
100
AcDbLine
 10
1282.092856276508
 20
580.4201467790273
 30
0.0
 11
1282.092856276508
 21
574.8654706308789
 31
0.0
  0
LINE
  5
224B
330
2210
100
AcDbEntity
  8
0
 62
     0
370
    -2
100
AcDbLine
 10
1261.300772276514
 20
575.065470630879
 30
0.0
 11
1281.892856276507
 21
575.065470630879
 31
0.0
  0
SOLID
  5
224C
330
2210
100
AcDbEntity
  8
0
 62
     0
100
AcDbTrace
 10
1261.300772276514
 20
575.0988039642122
 30
0.0
 11
1261.300772276514
 21
575.0321372975456
 31
0.0
 12
1261.100772276514
 22
575.065470630879
 32
0.0
 13
1261.100772276514
 23
575.065470630879
 33
0.0
  0
SOLID
  5
224D
330
2210
100
AcDbEntity
  8
0
 62
     0
100
AcDbTrace
 10
1281.892856276507
 20
575.0988039642122
 30
0.0
 11
1281.892856276507
 21
575.0321372975456
 31
0.0
 12
1282.092856276508
 22
575.065470630879
 32
0.0
 13
1282.092856276508
 23
575.065470630879
 33
0.0
  0
MTEXT
  5
224E
330
2210
100
AcDbEntity
  8
0
 62
     0
100
AcDbMText
 10
1271.596814276511
 20
575.312320630879
 30
0.0
 40
0.3937
 41
0.0
 71
     5
 72
     1
  1
\A1;20.9921
  7
\U+C2A4\U+D0C0\U+C77C2
 73
     1
 44
1.0
  0
POINT
  5
224F
330
2210
100
AcDbEntity
  8
Defpoints
 62
     0
100
AcDbPoint
 10
1261.100772276514
 20
580.5201467790273
 30
0.0
  0
POINT
  5
2250
330
2210
100
AcDbEntity
  8
Defpoints
 62
     0
100
AcDbPoint
 10
1282.092856276508
 20
580.5201467790273
 30
0.0
  0
POINT
  5
2251
330
2210
100
AcDbEntity
  8
Defpoints
 62
     0
100
AcDbPoint
 10
1282.092856276508
 20
575.065470630879
 30
0.0
  0
ENDBLK
  5
221B
330
2210
100
AcDbEntity
  8
0
100
AcDbBlockEnd
  0
BLOCK
  5
2227
330
221D
100
AcDbEntity
  8
0
100
AcDbBlockBegin
  2
*D6
 70
     1
 10
0.0
 20
0.0
 30
0.0
  3
*D6
  1

  0
LINE
  5
221E
330
221D
100
AcDbEntity
  8
0
 62
     0
370
    -2
100
AcDbLine
 10
1260.864552276514
 20
580.4201467790273
 30
0.0
 11
1260.864552276514
 21
574.1243028226889
 31
0.0
  0
LINE
  5
221F
330
221D
100
AcDbEntity
  8
0
 62
     0
370
    -2
100
AcDbLine
 10
1282.329076276508
 20
580.420146779027
 30
0.0
 11
1282.329076276508
 21
574.1243028226889
 31
0.0
  0
LINE
  5
2220
330
221D
100
AcDbEntity
  8
0
 62
     0
370
    -2
100
AcDbLine
 10
1261.064552276514
 20
574.3243028226891
 30
0.0
 11
1282.129076276508
 21
574.3243028226891
 31
0.0
  0
SOLID
  5
2221
330
221D
100
AcDbEntity
  8
0
 62
     0
100
AcDbTrace
 10
1261.064552276514
 20
574.3576361560222
 30
0.0
 11
1261.064552276514
 21
574.2909694893557
 31
0.0
 12
1260.864552276514
 22
574.3243028226891
 32
0.0
 13
1260.864552276514
 23
574.3243028226891
 33
0.0
  0
SOLID
  5
2222
330
221D
100
AcDbEntity
  8
0
 62
     0
100
AcDbTrace
 10
1282.129076276508
 20
574.3576361560222
 30
0.0
 11
1282.129076276508
 21
574.2909694893557
 31
0.0
 12
1282.329076276508
 22
574.3243028226891
 32
0.0
 13
1282.329076276508
 23
574.3243028226891
 33
0.0
  0
MTEXT
  5
2223
330
221D
100
AcDbEntity
  8
0
 62
     0
100
AcDbMText
 10
1271.596814276511
 20
574.5711528226888
 30
0.0
 40
0.3937
 41
0.0
 71
     5
 72
     1
  1
\A1;21.4645
  7
\U+C2A4\U+D0C0\U+C77C2
 73
     1
 44
1.0
  0
POINT
  5
2224
330
221D
100
AcDbEntity
  8
Defpoints
 62
     0
100
AcDbPoint
 10
1260.864552276514
 20
580.5201467790273
 30
0.0
  0
POINT
  5
2225
330
221D
100
AcDbEntity
  8
Defpoints
 62
     0
100
AcDbPoint
 10
1282.329076276508
 20
580.520146779027
 30
0.0
  0
POINT
  5
2226
330
221D
100
AcDbEntity
  8
Defpoints
 62
     0
100
AcDbPoint
 10
1282.329076276508
 20
574.3243028226891
 30
0.0
  0
ENDBLK
  5
2228
330
221D
100
AcDbEntity
  8
0
100
AcDbBlockEnd
  0
BLOCK
  5
22B1
330
22B0
100
AcDbEntity
  8
0
100
AcDbBlockBegin
  2
*D7
 70
     1
 10
0.0
 20
0.0
 30
0.0
  3
*D7
  1

  0
LINE
  5
22B2
330
22B0
100
AcDbEntity
  8
0
 62
     0
370
    -2
100
AcDbLine
 10
-2706.637878250126
 20
-8421.896476464038
 30
0.0
 11
-2706.637878250126
 21
-8428.68195642165
 31
0.0
  0
LINE
  5
22B3
330
22B0
100
AcDbEntity
  8
0
 62
     0
370
    -2
100
AcDbLine
 10
-2677.346686706523
 20
-8421.896476464025
 30
0.0
 11
-2677.346686706523
 21
-8428.68195642165
 31
0.0
  0
LINE
  5
22B4
330
22B0
100
AcDbEntity
  8
0
 62
     0
370
    -2
100
AcDbLine
 10
-2706.137878250126
 20
-8427.681956421649
 30
0.0
 11
-2677.846686706522
 21
-8427.681956421649
 31
0.0
  0
SOLID
  5
22B5
330
22B0
100
AcDbEntity
  8
0
 62
     0
100
AcDbTrace
 10
-2706.137878250126
 20
-8427.598623088316
 30
0.0
 11
-2706.137878250126
 21
-8427.765289754983
 31
0.0
 12
-2706.637878250126
 22
-8427.681956421649
 32
0.0
 13
-2706.637878250126
 23
-8427.681956421649
 33
0.0
  0
SOLID
  5
22B6
330
22B0
100
AcDbEntity
  8
0
 62
     0
100
AcDbTrace
 10
-2677.846686706522
 20
-8427.598623088316
 30
0.0
 11
-2677.846686706522
 21
-8427.765289754983
 31
0.0
 12
-2677.346686706523
 22
-8427.681956421649
 32
0.0
 13
-2677.346686706523
 23
-8427.681956421649
 33
0.0
  0
MTEXT
  5
22B7
330
22B0
100
AcDbEntity
  8
0
 62
     0
100
AcDbMText
 10
-2691.992282478324
 20
-8426.681956421649
 30
0.0
 40
1.0
 41
0.0
 71
     5
 72
     1
  1
\A1;29.29
  7
STYLE1
 73
     1
 44
1.0
  0
POINT
  5
22B8
330
22B0
100
AcDbEntity
  8
Defpoints
 62
     0
100
AcDbPoint
 10
-2706.637878250126
 20
-8421.396476464037
 30
0.0
  0
POINT
  5
22B9
330
22B0
100
AcDbEntity
  8
Defpoints
 62
     0
100
AcDbPoint
 10
-2677.346686706523
 20
-8421.396476464023
 30
0.0
  0
POINT
  5
22BA
330
22B0
100
AcDbEntity
  8
Defpoints
 62
     0
100
AcDbPoint
 10
-2677.346686706523
 20
-8427.681956421649
 30
0.0
  0
ENDBLK
  5
22BB
330
22B0
100
AcDbEntity
  8
0
100
AcDbBlockEnd
  0
BLOCK
  5
22BD
330
22BC
100
AcDbEntity
  8
0
100
AcDbBlockBegin
  2
*D8
 70
     1
 10
0.0
 20
0.0
 30
0.0
  3
*D8
  1

  0
LINE
  5
22BE
330
22BC
100
AcDbEntity
  8
0
 62
     0
370
    -2
100
AcDbLine
 10
-2681.216767806522
 20
-8425.766557564037
 30
0.0
 11
-2672.3648387098
 21
-8425.766557564037
 31
0.0
  0
LINE
  5
22BF
330
22BC
100
AcDbEntity
  8
0
 62
     0
370
    -2
100
AcDbLine
 10
-2681.216767806522
 20
-8410.018517564038
 30
0.0
 11
-2672.3648387098
 21
-8410.018517564038
 31
0.0
  0
LINE
  5
22C0
330
22BC
100
AcDbEntity
  8
0
 62
     0
370
    -2
100
AcDbLine
 10
-2672.8648387098
 20
-8425.266557564036
 30
0.0
 11
-2672.8648387098
 21
-8410.518517564039
 31
0.0
  0
SOLID
  5
22C1
330
22BC
100
AcDbEntity
  8
0
 62
     0
100
AcDbTrace
 10
-2672.948172043134
 20
-8425.266557564036
 30
0.0
 11
-2672.781505376466
 21
-8425.266557564036
 31
0.0
 12
-2672.8648387098
 22
-8425.766557564037
 32
0.0
 13
-2672.8648387098
 23
-8425.766557564037
 33
0.0
  0
SOLID
  5
22C2
330
22BC
100
AcDbEntity
  8
0
 62
     0
100
AcDbTrace
 10
-2672.948172043134
 20
-8410.518517564039
 30
0.0
 11
-2672.781505376466
 21
-8410.518517564039
 31
0.0
 12
-2672.8648387098
 22
-8410.018517564038
 32
0.0
 13
-2672.8648387098
 23
-8410.018517564038
 33
0.0
  0
MTEXT
  5
22C3
330
22BC
100
AcDbEntity
  8
0
 62
     0
100
AcDbMText
 10
-2673.614838709799
 20
-8417.892537564037
 30
0.0
 40
1.0
 41
0.0
 71
     5
 72
     1
  1
\A1;15.75
  7
STYLE1
 11
0.0000000000000001
 21
1.0
 31
0.0
 73
     1
 44
1.0
  0
POINT
  5
22C4
330
22BC
100
AcDbEntity
  8
Defpoints
 62
     0
100
AcDbPoint
 10
-2681.716767806522
 20
-8425.766557564037
 30
0.0
  0
POINT
  5
22C5
330
22BC
100
AcDbEntity
  8
Defpoints
 62
     0
100
AcDbPoint
 10
-2681.716767806522
 20
-8410.018517564038
 30
0.0
  0
POINT
  5
22C6
330
22BC
100
AcDbEntity
  8
Defpoints
 62
     0
100
AcDbPoint
 10
-2672.8648387098
 20
-8410.018517564038
 30
0.0
  0
ENDBLK
  5
22C7
330
22BC
100
AcDbEntity
  8
0
100
AcDbBlockEnd
  0
BLOCK
  5
2315
330
230B
100
AcDbEntity
  8
0
100
AcDbBlockBegin
  2
*D10
 70
     1
 10
0.0
 20
0.0
 30
0.0
  3
*D10
  1

  0
LINE
  5
2323
330
230B
100
AcDbEntity
  8
0
 62
     0
370
    -2
100
AcDbLine
 10
1286.144138652757
 20
579.7601502844249
 30
0.0
 11
1286.144138652757
 21
572.9746703268123
 31
0.0
  0
LINE
  5
2324
330
230B
100
AcDbEntity
  8
0
 62
     0
370
    -2
100
AcDbLine
 10
1315.435330196361
 20
579.7601502844376
 30
0.0
 11
1315.435330196361
 21
572.9746703268123
 31
0.0
  0
LINE
  5
2325
330
230B
100
AcDbEntity
  8
0
 62
     0
370
    -2
100
AcDbLine
 10
1286.644138652757
 20
573.9746703268123
 30
0.0
 11
1314.93533019636
 21
573.9746703268123
 31
0.0
  0
SOLID
  5
2326
330
230B
100
AcDbEntity
  8
0
 62
     0
100
AcDbTrace
 10
1286.644138652757
 20
574.0580036601456
 30
0.0
 11
1286.644138652757
 21
573.8913369934789
 31
0.0
 12
1286.144138652757
 22
573.9746703268123
 32
0.0
 13
1286.144138652757
 23
573.9746703268123
 33
0.0
  0
SOLID
  5
2327
330
230B
100
AcDbEntity
  8
0
 62
     0
100
AcDbTrace
 10
1314.93533019636
 20
574.0580036601456
 30
0.0
 11
1314.93533019636
 21
573.8913369934789
 31
0.0
 12
1315.435330196361
 22
573.9746703268123
 32
0.0
 13
1315.435330196361
 23
573.9746703268123
 33
0.0
  0
MTEXT
  5
2328
330
230B
100
AcDbEntity
  8
0
 62
     0
100
AcDbMText
 10
1300.789734424559
 20
574.9746703268122
 30
0.0
 40
1.0
 41
0.0
 71
     5
 72
     1
  1
\A1;29.29
  7
STYLE1
 73
     1
 44
1.0
  0
POINT
  5
2329
330
230B
100
AcDbEntity
  8
Defpoints
 62
     0
100
AcDbPoint
 10
1286.144138652757
 20
580.2601502844249
 30
0.0
  0
POINT
  5
232A
330
230B
100
AcDbEntity
  8
Defpoints
 62
     0
100
AcDbPoint
 10
1315.435330196361
 20
580.2601502844376
 30
0.0
  0
POINT
  5
232B
330
230B
100
AcDbEntity
  8
Defpoints
 62
     0
100
AcDbPoint
 10
1315.435330196361
 20
573.9746703268123
 30
0.0
  0
ENDBLK
  5
2316
330
230B
100
AcDbEntity
  8
0
100
AcDbBlockEnd
  0
BLOCK
  5
2321
330
2317
100
AcDbEntity
  8
0
100
AcDbBlockBegin
  2
*D11
 70
     1
 10
0.0
 20
0.0
 30
0.0
  3
*D11
  1

  0
LINE
  5
232C
330
2317
100
AcDbEntity
  8
0
 62
     0
370
    -2
100
AcDbLine
 10
1311.565249096361
 20
575.890069184425
 30
0.0
 11
1320.417178193082
 21
575.890069184425
 31
0.0
  0
LINE
  5
232D
330
2317
100
AcDbEntity
  8
0
 62
     0
370
    -2
100
AcDbLine
 10
1311.565249096361
 20
591.6381091844235
 30
0.0
 11
1320.417178193082
 21
591.6381091844235
 31
0.0
  0
LINE
  5
232E
330
2317
100
AcDbEntity
  8
0
 62
     0
370
    -2
100
AcDbLine
 10
1319.917178193082
 20
576.3900691844249
 30
0.0
 11
1319.917178193082
 21
591.1381091844235
 31
0.0
  0
SOLID
  5
232F
330
2317
100
AcDbEntity
  8
0
 62
     0
100
AcDbTrace
 10
1319.833844859749
 20
576.3900691844249
 30
0.0
 11
1320.000511526416
 21
576.3900691844249
 31
0.0
 12
1319.917178193082
 22
575.890069184425
 32
0.0
 13
1319.917178193082
 23
575.890069184425
 33
0.0
  0
SOLID
  5
2330
330
2317
100
AcDbEntity
  8
0
 62
     0
100
AcDbTrace
 10
1319.833844859749
 20
591.1381091844235
 30
0.0
 11
1320.000511526416
 21
591.1381091844235
 31
0.0
 12
1319.917178193082
 22
591.6381091844235
 32
0.0
 13
1319.917178193082
 23
591.6381091844235
 33
0.0
  0
MTEXT
  5
2331
330
2317
100
AcDbEntity
  8
0
 62
     0
100
AcDbMText
 10
1319.167178193082
 20
583.7640891844245
 30
0.0
 40
1.0
 41
0.0
 71
     5
 72
     1
  1
\A1;15.75
  7
STYLE1
 11
0.0000000000000001
 21
1.0
 31
0.0
 73
     1
 44
1.0
  0
POINT
  5
2332
330
2317
100
AcDbEntity
  8
Defpoints
 62
     0
100
AcDbPoint
 10
1311.065249096361
 20
575.890069184425
 30
0.0
  0
POINT
  5
2333
330
2317
100
AcDbEntity
  8
Defpoints
 62
     0
100
AcDbPoint
 10
1311.065249096361
 20
591.6381091844235
 30
0.0
  0
POINT
  5
2334
330
2317
100
AcDbEntity
  8
Defpoints
 62
     0
100
AcDbPoint
 10
1319.917178193082
 20
591.6381091844235
 30
0.0
  0
ENDBLK
  5
2322
330
2317
100
AcDbEntity
  8
0
100
AcDbBlockEnd
  0
BLOCK
  5
2338
330
2337
100
AcDbEntity
  8
0
100
AcDbBlockBegin
  2
*D12
 70
     1
 10
0.0
 20
0.0
 30
0.0
  3
*D12
  1

  0
LINE
  5
2339
330
2337
100
AcDbEntity
  8
0
 62
     0
370
    -2
100
AcDbLine
 10
-983.9029262132083
 20
-3248.397379829284
 30
0.0
 11
-983.9029262132083
 21
-3259.823843334733
 31
0.0
  0
LINE
  5
233A
330
2337
100
AcDbEntity
  8
0
 62
     0
370
    -2
100
AcDbLine
 10
-954.6115670684738
 20
-3248.397379829284
 30
0.0
 11
-954.6115670684738
 21
-3259.823843334733
 31
0.0
  0
LINE
  5
233B
330
2337
100
AcDbEntity
  8
0
 62
     0
370
    -2
100
AcDbLine
 10
-982.9029262132083
 20
-3257.823843334733
 30
0.0
 11
-975.1684020090333
 21
-3257.823843334733
 31
0.0
  0
LINE
  5
233C
330
2337
100
AcDbEntity
  8
0
 62
     0
370
    -2
100
AcDbLine
 10
-955.6115670684738
 20
-3257.823843334733
 30
0.0
 11
-963.2636401042715
 21
-3257.823843334733
 31
0.0
  0
MTEXT
  5
233D
330
2337
100
AcDbEntity
  8
0
 62
     0
100
AcDbMText
 10
-969.2160210566523
 20
-3257.823843334733
 30
0.0
 40
2.0
 41
0.0
 71
     5
 72
     1
  1
\A1;29.29
  7
STYLE2
 73
     1
 44
1.0
  0
SOLID
  5
233E
330
2337
100
AcDbEntity
  8
0
 62
     0
100
AcDbTrace
 10
-982.9029262132083
 20
-3257.657176668067
 30
0.0
 11
-982.9029262132083
 21
-3257.9905100014
 31
0.0
 12
-983.9029262132083
 22
-3257.823843334733
 32
0.0
 13
-983.9029262132083
 23
-3257.823843334733
 33
0.0
  0
SOLID
  5
233F
330
2337
100
AcDbEntity
  8
0
 62
     0
100
AcDbTrace
 10
-955.6115670684738
 20
-3257.657176668067
 30
0.0
 11
-955.6115670684738
 21
-3257.9905100014
 31
0.0
 12
-954.6115670684738
 22
-3257.823843334733
 32
0.0
 13
-954.6115670684738
 23
-3257.823843334733
 33
0.0
  0
POINT
  5
2340
330
2337
100
AcDbEntity
  8
Defpoints
 62
     0
100
AcDbPoint
 10
-983.9029262132083
 20
-3247.397379829284
 30
0.0
  0
POINT
  5
2341
330
2337
100
AcDbEntity
  8
Defpoints
 62
     0
100
AcDbPoint
 10
-954.6115670684738
 20
-3247.397379829284
 30
0.0
  0
POINT
  5
2342
330
2337
100
AcDbEntity
  8
Defpoints
 62
     0
100
AcDbPoint
 10
-954.6115670684738
 20
-3257.823843334733
 30
0.0
  0
ENDBLK
  5
2343
330
2337
100
AcDbEntity
  8
0
100
AcDbBlockEnd
  0
BLOCK
  5
2345
330
2344
100
AcDbEntity
  8
0
100
AcDbBlockBegin
  2
*D13
 70
     1
 10
0.0
 20
0.0
 30
0.0
  3
*D13
  1

  0
LINE
  5
2346
330
2344
100
AcDbEntity
  8
0
 62
     0
370
    -2
100
AcDbLine
 10
-960.6391311046575
 20
-3255.271399829284
 30
0.0
 11
-950.532762350209
 21
-3255.271399829284
 31
0.0
  0
LINE
  5
2347
330
2344
100
AcDbEntity
  8
0
 62
     0
370
    -2
100
AcDbLine
 10
-960.6391311046575
 20
-3239.523359829284
 30
0.0
 11
-950.532762350209
 21
-3239.523359829284
 31
0.0
  0
LINE
  5
2348
330
2344
100
AcDbEntity
  8
0
 62
     0
370
    -2
100
AcDbLine
 10
-952.5327623502091
 20
-3254.271399829284
 30
0.0
 11
-952.5327623502091
 21
-3253.255118602558
 31
0.0
  0
LINE
  5
2349
330
2344
100
AcDbEntity
  8
0
 62
     0
370
    -2
100
AcDbLine
 10
-952.5327623502091
 20
-3240.523359829284
 30
0.0
 11
-952.5327623502091
 21
-3241.63607098351
 31
0.0
  0
MTEXT
  5
234A
330
2344
100
AcDbEntity
  8
0
 62
     0
100
AcDbMText
 10
-952.5327623502091
 20
-3247.445594793035
 30
0.0
 40
2.0
 41
0.0
 71
     5
 72
     1
  1
\A1;15.75
  7
STYLE2
 11
0.0000000000000001
 21
1.0
 31
0.0
 73
     1
 44
1.0
  0
SOLID
  5
234B
330
2344
100
AcDbEntity
  8
0
 62
     0
100
AcDbTrace
 10
-952.6994290168756
 20
-3254.271399829284
 30
0.0
 11
-952.3660956835424
 21
-3254.271399829284
 31
0.0
 12
-952.5327623502091
 22
-3255.271399829284
 32
0.0
 13
-952.5327623502091
 23
-3255.271399829284
 33
0.0
  0
SOLID
  5
234C
330
2344
100
AcDbEntity
  8
0
 62
     0
100
AcDbTrace
 10
-952.6994290168756
 20
-3240.523359829284
 30
0.0
 11
-952.3660956835424
 21
-3240.523359829284
 31
0.0
 12
-952.5327623502091
 22
-3239.523359829284
 32
0.0
 13
-952.5327623502091
 23
-3239.523359829284
 33
0.0
  0
POINT
  5
234D
330
2344
100
AcDbEntity
  8
Defpoints
 62
     0
100
AcDbPoint
 10
-961.6391311046575
 20
-3255.271399829284
 30
0.0
  0
POINT
  5
234E
330
2344
100
AcDbEntity
  8
Defpoints
 62
     0
100
AcDbPoint
 10
-961.6391311046575
 20
-3239.523359829284
 30
0.0
  0
POINT
  5
234F
330
2344
100
AcDbEntity
  8
Defpoints
 62
     0
100
AcDbPoint
 10
-952.5327623502091
 20
-3239.523359829284
 30
0.0
  0
ENDBLK
  5
2350
330
2344
100
AcDbEntity
  8
0
100
AcDbBlockEnd
  0
BLOCK
  5
238C
330
2381
100
AcDbEntity
  8
0
100
AcDbBlockBegin
  2
*D15
 70
     1
 10
0.0
 20
0.0
 30
0.0
  3
*D15
  1

  0
LINE
  5
23CF
330
2381
100
AcDbEntity
  8
0
 62
     0
370
    -2
100
AcDbLine
 10
1272.251552701026
 20
583.0743978501029
 30
0.0
 11
1272.251552701026
 21
571.6479343446537
 31
0.0
  0
LINE
  5
23D0
330
2381
100
AcDbEntity
  8
0
 62
     0
370
    -2
100
AcDbLine
 10
1301.54291184576
 20
583.0743978501029
 30
0.0
 11
1301.54291184576
 21
571.6479343446537
 31
0.0
  0
LINE
  5
23D1
330
2381
100
AcDbEntity
  8
0
 62
     0
370
    -2
100
AcDbLine
 10
1273.251552701026
 20
573.6479343446537
 30
0.0
 11
1282.962267381391
 21
573.6479343446537
 31
0.0
  0
LINE
  5
23D2
330
2381
100
AcDbEntity
  8
0
 62
     0
370
    -2
100
AcDbLine
 10
1300.54291184576
 20
573.6479343446537
 30
0.0
 11
1290.914648333772
 21
573.6479343446537
 31
0.0
  0
MTEXT
  5
23D3
330
2381
100
AcDbEntity
  8
0
 62
     0
100
AcDbMText
 10
1286.938457857582
 20
573.6479343446537
 30
0.0
 40
1.0
 41
0.0
 71
     5
 72
     1
  1
\A1;29.29
  7
STYLE1
 73
     1
 44
1.0
  0
SOLID
  5
23D4
330
2381
100
AcDbEntity
  8
0
 62
     0
100
AcDbTrace
 10
1273.251552701026
 20
573.8146010113204
 30
0.0
 11
1273.251552701026
 21
573.4812676779871
 31
0.0
 12
1272.251552701026
 22
573.6479343446537
 32
0.0
 13
1272.251552701026
 23
573.6479343446537
 33
0.0
  0
SOLID
  5
23D5
330
2381
100
AcDbEntity
  8
0
 62
     0
100
AcDbTrace
 10
1300.54291184576
 20
573.8146010113204
 30
0.0
 11
1300.54291184576
 21
573.4812676779871
 31
0.0
 12
1301.54291184576
 22
573.6479343446537
 32
0.0
 13
1301.54291184576
 23
573.6479343446537
 33
0.0
  0
POINT
  5
23D6
330
2381
100
AcDbEntity
  8
Defpoints
 62
     0
100
AcDbPoint
 10
1272.251552701026
 20
584.074397850103
 30
0.0
  0
POINT
  5
23D7
330
2381
100
AcDbEntity
  8
Defpoints
 62
     0
100
AcDbPoint
 10
1301.54291184576
 20
584.074397850103
 30
0.0
  0
POINT
  5
23D8
330
2381
100
AcDbEntity
  8
Defpoints
 62
     0
100
AcDbPoint
 10
1301.54291184576
 20
573.6479343446537
 30
0.0
  0
ENDBLK
  5
238D
330
2381
100
AcDbEntity
  8
0
100
AcDbBlockEnd
  0
BLOCK
  5
2399
330
238E
100
AcDbEntity
  8
0
100
AcDbBlockBegin
  2
*D16
 70
     1
 10
0.0
 20
0.0
 30
0.0
  3
*D16
  1

  0
LINE
  5
23C5
330
238E
100
AcDbEntity
  8
0
 62
     0
370
    -2
100
AcDbLine
 10
1295.515347809576
 20
576.2003778501028
 30
0.0
 11
1305.621716564025
 21
576.2003778501028
 31
0.0
  0
LINE
  5
23C6
330
238E
100
AcDbEntity
  8
0
 62
     0
370
    -2
100
AcDbLine
 10
1295.515347809576
 20
591.9484178501027
 30
0.0
 11
1305.621716564025
 21
591.9484178501027
 31
0.0
  0
LINE
  5
23C7
330
238E
100
AcDbEntity
  8
0
 62
     0
370
    -2
100
AcDbLine
 10
1303.621716564025
 20
577.2003778501027
 30
0.0
 11
1303.621716564025
 21
580.1214209815903
 31
0.0
  0
LINE
  5
23C8
330
238E
100
AcDbEntity
  8
0
 62
     0
370
    -2
100
AcDbLine
 10
1303.621716564025
 20
590.9484178501027
 30
0.0
 11
1303.621716564025
 21
587.9309447911141
 31
0.0
  0
MTEXT
  5
23C9
330
238E
100
AcDbEntity
  8
0
 62
     0
100
AcDbMText
 10
1303.621716564025
 20
584.0261828863524
 30
0.0
 40
1.0
 41
0.0
 71
     5
 72
     1
  1
\A1;15.75
  7
STYLE1
 11
0.0000000000000001
 21
1.0
 31
0.0
 73
     1
 44
1.0
  0
SOLID
  5
23CA
330
238E
100
AcDbEntity
  8
0
 62
     0
100
AcDbTrace
 10
1303.455049897358
 20
577.2003778501027
 30
0.0
 11
1303.788383230692
 21
577.2003778501027
 31
0.0
 12
1303.621716564025
 22
576.2003778501028
 32
0.0
 13
1303.621716564025
 23
576.2003778501028
 33
0.0
  0
SOLID
  5
23CB
330
238E
100
AcDbEntity
  8
0
 62
     0
100
AcDbTrace
 10
1303.455049897358
 20
590.9484178501027
 30
0.0
 11
1303.788383230692
 21
590.9484178501027
 31
0.0
 12
1303.621716564025
 22
591.9484178501027
 32
0.0
 13
1303.621716564025
 23
591.9484178501027
 33
0.0
  0
POINT
  5
23CC
330
238E
100
AcDbEntity
  8
Defpoints
 62
     0
100
AcDbPoint
 10
1294.515347809577
 20
576.2003778501028
 30
0.0
  0
POINT
  5
23CD
330
238E
100
AcDbEntity
  8
Defpoints
 62
     0
100
AcDbPoint
 10
1294.515347809577
 20
591.9484178501027
 30
0.0
  0
POINT
  5
23CE
330
238E
100
AcDbEntity
  8
Defpoints
 62
     0
100
AcDbPoint
 10
1303.621716564025
 20
591.9484178501027
 30
0.0
  0
ENDBLK
  5
239A
330
238E
100
AcDbEntity
  8
0
100
AcDbBlockEnd
  0
ENDSEC
  0
SECTION
  2
ENTITIES
  0
POINT
  5
37C
330
2
100
AcDbEntity
  8
0
 60
     1
100
AcDbPoint
 10
170.4737662487822
 20
-90.83440570086338
 30
0.0
1001
GENIUS_GENOBJ-N-TIT_13
1002
{
1000
OWNER
1000
GEN
1002
}
1001
GENIUS_GENOENT_13
1002
{
1000
MYREF
1005
37C
1002
}
1002
{
1000
GRP
1005
0
1002
}
1001
GENIUS_GENOLIS_13
1002
{
1000
ENT
1005
0
1005
0
1002
}
1001
GENIUS_GENTITLE_13
1002
{
1000
SCALE
1000
1:1
1002
}
1002
{
1000
BORDER
1000
GEN_A1
1002
}
1002
{
1000
TITLE
1000
GENTITLE
1002
}
1002
{
1000
UNCHG
1002
{
1000
GEN-TITLE-SCA
1000
GEN-TITLE-SIZ
1002
}
1002
}
1002
{
1000
HRA
1005
0
1002
}
1002
{
1000
HTIT
1005
0
1002
}
1002
{
1000
GENIUSID
1005
37C
1002
}
1001
GENIUS_GENODEF_13
1002
{
1000
HIER
1070
     1
1002
}
1002
{
1000
MANEDIT
1070
     0
1002
}
1002
{
1000
NOSEL
1070
     0
1002
}
1002
{
1000
BEHIND
1070
     0
1002
}
1002
{
1000
REACTOR
1002
}
  0
TEXT
  5
384
330
2
100
AcDbEntity
  8
0
 60
     1
100
AcDbText
 10
830.9999999999996
 20
-52.92726755347096
 30
0.0
 40
3.5
  1
!GENTITLE-INSERT
100
AcDbText
  0
TEXT
  5
385
330
2
100
AcDbEntity
  8
0
 60
     1
100
AcDbText
 10
10.0
 20
-47.92726755347096
 30
0.0
 40
3.5
  1
!GENTITLE-LL
100
AcDbText
  0
TEXT
  5
386
330
2
100
AcDbEntity
  8
0
 60
     1
100
AcDbText
 10
831.0
 20
526.072732446529
 30
0.0
 40
3.5
  1
!GENTITLE-RU
100
AcDbText
  0
TEXT
  5
387
330
2
100
AcDbEntity
  8
0
 60
     1
100
AcDbText
 10
841.0
 20
536.0727324465289
 30
0.0
 40
3.5
  1
!GENTITLE-MAX
100
AcDbText
  0
TEXT
  5
3FA
330
2
100
AcDbEntity
  8
0
 60
     1
100
AcDbText
 10
684.8812705983662
 20
141.8068575944205
 30
0.0
 40
3.5
  1
!GENTITLE-INSERT
100
AcDbText
  0
TEXT
  5
3FB
330
2
100
AcDbEntity
  8
0
 60
     1
100
AcDbText
 10
-136.1187294016335
 20
146.8068575944205
 30
0.0
 40
3.5
  1
!GENTITLE-LL
100
AcDbText
  0
TEXT
  5
3FC
330
2
100
AcDbEntity
  8
0
 60
     1
100
AcDbText
 10
684.8812705983664
 20
720.8068575944203
 30
0.0
 40
3.5
  1
!GENTITLE-RU
100
AcDbText
  0
TEXT
  5
3FD
330
2
100
AcDbEntity
  8
0
 60
     1
100
AcDbText
 10
694.8812705983664
 20
730.8068575944203
 30
0.0
 40
3.5
  1
!GENTITLE-MAX
100
AcDbText
  0
MTEXT
  5
229F
330
2
100
AcDbEntity
  8
0
100
AcDbMText
 10
1279.605185934807
 20
581.8842629194076
 30
0.0
 40
0.3937
 41
14.93397349915023
 71
     1
 72
     5
  3
{\fTimes New Roman|b0|i0|c0|p18;\H1.27x;Model : CADA-3218SU   \H0.58x;IMPORTANT ! \PThis template is provided as a guide for Undermount cutout only. \PBefore beginning to cut countertop, compare physical dimension of the template and the cutout line 
  1
with the actual sink unit for an accurate cut.\PHamatUSA is not responsible for any countertop, installation or labor charges due to failure to follow these instructions.\P\Lwww.Hamatusa.com }
  7
\U+C2A4\U+D0C0\U+C77C2
 73
     1
 44
1.0
  0
ARC
  5
236C
330
2
100
AcDbEntity
  8
0
100
AcDbCircle
 10
1435.591012169245
 20
584.074397850103
 30
0.0
 40
163.3394594682192
100
AcDbArc
 50
178.7027039914819
 51
181.2972960085181
  0
ARC
  5
236D
330
2
100
AcDbEntity
  8
0
100
AcDbCircle
 10
1276.661005087209
 20
586.0704619201016
 30
0.0
 40
9.842524999998726
100
AcDbArc
 50
259.3934489588065
 51
268.7938176111611
  0
ARC
  5
236E
330
2
100
AcDbEntity
  8
0
100
AcDbCircle
 10
1275.400095351952
 20
579.3371082848454
 30
0.0
 40
2.992127600001777
100
AcDbArc
 50
190.6065510412866
 51
259.3934489588065
  0
ARC
  5
236F
330
2
100
AcDbEntity
  8
0
100
AcDbCircle
 10
1279.279116737209
 20
710.4169857600557
 30
0.0
 40
134.2166079099527
100
AcDbArc
 50
268.7938176111611
 51
270.0
  0
ARC
  5
2370
330
2
100
AcDbEntity
  8
0
100
AcDbCircle
 10
1282.133448987221
 20
580.5980180201038
 30
0.0
 40
9.842525000012066
100
AcDbArc
 50
181.2903909389655
 51
190.6065510412866
  0
ARC
  5
2371
330
2
100
AcDbEntity
  8
0
100
AcDbCircle
 10
1276.66100508721
 20
582.0783337801024
 30
0.0
 40
9.842525000000428
100
AcDbArc
 50
91.20618238883883
 51
100.6065510411936
  0
ARC
  5
2372
330
2
100
AcDbEntity
  8
0
100
AcDbCircle
 10
1275.400095351952
 20
588.8116874153604
 30
0.0
 40
2.992127600001686
100
AcDbArc
 50
100.6065510411936
 51
169.3934489587133
  0
ARC
  5
2373
330
2
100
AcDbEntity
  8
0
100
AcDbCircle
 10
1282.133448987221
 20
587.5507776801021
 30
0.0
 40
9.842525000012074
100
AcDbArc
 50
169.3934489587133
 51
178.7096090610345
  0
ARC
  5
2374
330
2
100
AcDbEntity
  8
0
100
AcDbCircle
 10
1279.27911673721
 20
457.7318099401443
 30
0.0
 40
134.2166079099586
100
AcDbArc
 50
90.0
 51
91.20618238883883
  0
ARC
  5
2375
330
2
100
AcDbEntity
  8
0
100
AcDbCircle
 10
1138.203452377541
 20
584.074397850103
 30
0.0
 40
163.3394594682192
100
AcDbArc
 50
358.7027039914819
 51
1.297296008518086
  0
ARC
  5
2376
330
2
100
AcDbEntity
  8
0
100
AcDbCircle
 10
1297.133459459576
 20
586.0704619201016
 30
0.0
 40
9.842524999998726
100
AcDbArc
 50
271.2061823888388
 51
280.6065510411936
  0
ARC
  5
2377
330
2
100
AcDbEntity
  8
0
100
AcDbCircle
 10
1298.394369194834
 20
579.3371082848454
 30
0.0
 40
2.992127600001777
100
AcDbArc
 50
280.6065510411936
 51
349.3934489587133
  0
ARC
  5
2378
330
2
100
AcDbEntity
  8
0
100
AcDbCircle
 10
1291.661015559565
 20
580.5980180201038
 30
0.0
 40
9.842525000012066
100
AcDbArc
 50
349.3934489587133
 51
358.7096090610345
  0
ARC
  5
2379
330
2
100
AcDbEntity
  8
0
100
AcDbCircle
 10
1297.133459459576
 20
582.0783337801024
 30
0.0
 40
9.842525000000428
100
AcDbArc
 50
79.39344895880641
 51
88.79381761116116
  0
ARC
  5
237A
330
2
100
AcDbEntity
  8
0
100
AcDbCircle
 10
1298.394369194834
 20
588.8116874153604
 30
0.0
 40
2.992127600001686
100
AcDbArc
 50
10.60655104128668
 51
79.39344895880641
  0
ARC
  5
237B
330
2
100
AcDbEntity
  8
0
100
AcDbCircle
 10
1291.661015559565
 20
587.5507776801021
 30
0.0
 40
9.842525000012074
100
AcDbArc
 50
1.290390938965513
 51
10.60655104128668
  0
ARC
  5
237C
330
2
100
AcDbEntity
  8
0
100
AcDbCircle
 10
1294.515347809577
 20
457.7318099401443
 30
0.0
 40
134.2166079099586
100
AcDbArc
 50
88.79381761116116
 51
90.0
  0
LINE
  5
237D
330
2
100
AcDbEntity
  8
0
100
AcDbLine
 10
1279.27911673721
 20
591.9484178501027
 30
0.0
 11
1294.515347809577
 21
591.9484178501027
 31
0.0
  0
LINE
  5
237E
330
2
100
AcDbEntity
  8
0
100
AcDbLine
 10
1279.279116737209
 20
576.2003778501028
 30
0.0
 11
1294.515347809577
 21
576.2003778501028
 31
0.0
  0
DIMENSION
  5
237F
330
2
100
AcDbEntity
  8
0
100
AcDbDimension
  2
*D15
 10
1301.54291184576
 20
573.6479343446537
 30
0.0
 11
1286.938457857582
 21
573.6479343446537
 31
0.0
 70
   160
 71
     5
 42
29.29135914473454
  3
1
100
AcDbAlignedDimension
 13
1272.251552701026
 23
584.074397850103
 33
0.0
 14
1301.54291184576
 24
584.074397850103
 34
0.0
100
AcDbRotatedDimension
1001
ACAD
1000
DSTYLE
1002
{
1070
   340
1005
22C9
1070
   178
1070
     0
1070
   177
1070
     0
1070
   176
1070
     0
1002
}
  0
DIMENSION
  5
2380
330
2
100
AcDbEntity
  8
0
100
AcDbDimension
  2
*D16
 10
1303.621716564025
 20
591.9484178501027
 30
0.0
 11
1303.621716564025
 21
584.0261828863524
 31
0.0
 70
   160
 71
     5
 42
15.74803999999994
  3
1
100
AcDbAlignedDimension
 13
1294.515347809577
 23
576.2003778501028
 33
0.0
 14
1294.515347809577
 24
591.9484178501027
 34
0.0
 50
90.0
100
AcDbRotatedDimension
1001
ACAD
1000
DSTYLE
1002
{
1070
   340
1005
22C9
1070
   178
1070
     0
1070
   177
1070
     0
1070
   176
1070
     0
1002
}
  0
VIEWPORT
  5
74
330
C
100
AcDbEntity
 67
     1
  8
0
100
AcDbViewport
 10
490.633788896909
 20
297.0009369707932
 30
0.0
 40
1115.370256166983
 41
599.3755656108596
 68
     1
 69
     1
 12
490.633788896909
 22
297.0009369707932
 13
0.0
 23
0.0
 14
10.0
 24
10.0
 15
10.0
 25
10.0
 16
0.0
 26
0.0
 36
1.0
 17
0.0
 27
0.0
 37
0.0
 42
50.0
 43
0.0
 44
0.0
 45
599.3755656108596
 50
0.0
 51
0.0
 72
  1000
 90
    32800
  1

281
     0
 71
     1
 74
     0
110
0.0
120
0.0
130
0.0
111
1.0
121
0.0
131
0.0
112
0.0
122
1.0
132
0.0
 79
     0
146
0.0
170
     0
  0
ENDSEC
  0
SECTION
  2
OBJECTS
  0
DICTIONARY
  5
7
330
0
100
AcDbDictionary
281
     1
  3
ACAD_COLOR
350
5A3
  3
ACAD_GROUP
350
20
  3
ACAD_LAYOUT
350
B
  3
ACAD_MATERIAL
350
5A2
  3
ACAD_MLINESTYLE
350
21
  3
ACAD_PLOTSETTINGS
350
22
  3
ACAD_PLOTSTYLENAME
350
6
  3
ACAD_TABLESTYLE
350
5C3
  3
ACAD_VISUALSTYLE
350
2284
  3
AcDbVariableDictionary
350
81
  0
DICTIONARY
  5
1C73
330
10
100
AcDbDictionary
280
     1
281
     1
  3
ACAD_LAYERSTATES
360
1C74
  0
DICTIONARY
  5
95E
330
2
100
AcDbDictionary
280
     1
281
     1
  3
ACAD_SORTENTS
360
95F
  0
DICTIONARY
  5
5A3
102
{ACAD_REACTORS
330
7
102
}
330
7
100
AcDbDictionary
281
     1
  0
DICTIONARY
  5
20
102
{ACAD_REACTORS
330
7
102
}
330
7
100
AcDbDictionary
281
     1
  0
DICTIONARY
  5
B
102
{ACAD_REACTORS
330
7
102
}
330
7
100
AcDbDictionary
281
     1
  3
DIN A1 Title Block
350
F
  3
Model
350
A
  0
DICTIONARY
  5
5A2
102
{ACAD_REACTORS
330
7
102
}
330
7
100
AcDbDictionary
281
     1
  3
ByBlock
350
2282
  3
ByLayer
350
2281
  3
Global
350
2283
  0
DICTIONARY
  5
21
102
{ACAD_REACTORS
330
7
102
}
330
7
100
AcDbDictionary
281
     1
  3
Standard
350
23
  0
DICTIONARY
  5
22
102
{ACAD_REACTORS
330
7
102
}
330
7
100
AcDbDictionary
281
     1
  0
ACDBDICTIONARYWDFLT
  5
6
102
{ACAD_REACTORS
330
7
102
}
330
7
100
AcDbDictionary
281
     1
  3
Normal
350
5
100
AcDbDictionaryWithDefault
340
5
  0
DICTIONARY
  5
5C3
102
{ACAD_REACTORS
330
7
102
}
330
7
100
AcDbDictionary
281
     1
  3
Standard
350
5C4
  0
DICTIONARY
  5
2284
102
{ACAD_REACTORS
330
7
102
}
330
7
100
AcDbDictionary
281
     1
  3
2dWireframe
350
228A
  3
3D Hidden
350
228C
  3
3dWireframe
350
228B
  3
Basic
350
2289
  3
Brighten
350
2290
  3
ColorChange
350
2294
  3
Conceptual
350
228D
  3
Dim
350
228F
  3
Facepattern
350
2293
  3
Flat
350
2285
  3
FlatWithEdges
350
2286
  3
Gouraud
350
2287
  3
GouraudWithEdges
350
2288
  3
Linepattern
350
2292
  3
Realistic
350
228E
  3
Thicken
350
2291
  0
DICTIONARY
  5
81
102
{ACAD_REACTORS
330
7
102
}
330
7
100
AcDbDictionary
281
     1
  3
CTABLESTYLE
350
5EE
  3
DIMASSOC
350
82
  3
PROJECTNAME
350
225B
  0
DICTIONARY
  5
1C74
102
{ACAD_REACTORS
330
1C73
102
}
330
1C73
100
AcDbDictionary
281
     1
  0
SORTENTSTABLE
  5
95F
102
{ACAD_REACTORS
330
95E
102
}
330
95E
100
AcDbSortentsTable
330
2
331
386
  5
386
331
384
  5
384
331
37C
  5
37C
331
3FD
  5
3FD
331
3FB
  5
3FB
331
387
  5
387
331
385
  5
385
331
3FC
  5
3FC
331
3FA
  5
3FA
  0
LAYOUT
  5
F
102
{ACAD_REACTORS
330
B
102
}
330
B
100
AcDbPlotSettings
  1

  2
none_device
  4
ISO_A1_(841.00_x_594.00_MM)
  6

 40
7.549999999999998
 41
20.05
 42
7.549999999999998
 43
20.05
 44
841.0
 45
594.0
 46
-7.57
 47
-20.06
 48
0.0
 49
0.0
140
0.0
141
0.0
142
1.0
143
1.0
 70
   688
 72
     1
 73
     0
 74
     5
  7

 75
    16
147
1.0
 76
     0
 77
     2
 78
   300
148
0.0128164049386896
149
0.0090630292066862
100
AcDbLayout
  1
DIN A1 Title Block
 70
     1
 71
     1
 10
0.0071835950613108
 20
0.0009369707933118
 11
841.0071835950612
 21
594.0009369707931
 12
0.0
 22
0.0
 32
0.0
 14
1.000000000000000E+20
 24
1.000000000000000E+20
 34
1.000000000000000E+20
 15
-1.000000000000000E+20
 25
-1.000000000000000E+20
 35
-1.000000000000000E+20
146
0.0
 13
0.0
 23
0.0
 33
0.0
 16
1.0
 26
0.0
 36
0.0
 17
0.0
 27
1.0
 37
0.0
 76
     0
330
C
331
74
  0
LAYOUT
  5
A
102
{ACAD_REACTORS
330
B
102
}
330
B
100
AcDbPlotSettings
  1

  2
none_device
  4
ISO_A4_(297.00_x_210.00_MM)
  6

 40
7.5
 41
20.0
 42
7.5
 43
20.0
 44
297.0
 45
210.0
 46
0.0
 47
0.0
 48
969.1120635225747
 49
1410.089773188028
140
997.7071895623687
141
1431.243016253039
142
1.0
143
20.0
 70
 11952
 72
     1
 73
     0
 74
     4
  7

 75
    22
147
0.05
 76
     0
 77
     2
 78
   300
148
-969.1120635225747
149
-1410.089773188028
100
AcDbLayout
  1
Model
 70
     1
 71
     0
 10
0.0
 20
0.0
 11
12.0
 21
9.0
 12
0.0
 22
0.0
 32
0.0
 14
0.0
 24
0.0
 34
0.0
 15
0.0
 25
0.0
 35
0.0
146
0.0
 13
0.0
 23
0.0
 33
0.0
 16
1.0
 26
0.0
 36
0.0
 17
0.0
 27
1.0
 37
0.0
 76
     0
330
2
331
2274
1001
ACAD_PSEXT
1000
\U+C5C6\U+C74C
1000
\U+C5C6\U+C74C
1000
\U+C801\U+C6A9 \U+AC00\U+B2A5\U+D558\U+C9C0 \U+C54A\U+C74C
1000
\U+BC30\U+CE58\U+AC00 \U+C0C8\U+B85C\U+C6B4 \U+D50C\U+B85C\U+D130 \U+AD6C\U+C131\U+C744 \U+C120\U+D0DD\U+D560 \U+B54C\U+AE4C\U+C9C0 \U+D50C\U+B86F\U+B418\U+C9C0 \U+C54A\U+C2B5\U+B2C8\U+B2E4.
1070
     0
  0
MATERIAL
  5
2282
102
{ACAD_XDICTIONARY
360
22A4
102
}
102
{ACAD_REACTORS
330
5A2
102
}
330
5A2
100
AcDbMaterial
  1
ByBlock
  0
MATERIAL
  5
2281
102
{ACAD_XDICTIONARY
360
22A2
102
}
102
{ACAD_REACTORS
330
5A2
102
}
330
5A2
100
AcDbMaterial
  1
ByLayer
  0
MATERIAL
  5
2283
102
{ACAD_XDICTIONARY
360
22A6
102
}
102
{ACAD_REACTORS
330
5A2
102
}
330
5A2
100
AcDbMaterial
  1
Global
  0
MLINESTYLE
  5
23
102
{ACAD_REACTORS
330
21
102
}
330
21
100
AcDbMlineStyle
  2
STANDARD
 70
     0
  3

 62
   256
 51
90.0
 52
90.0
 71
     2
 49
0.5
 62
   256
  6
BYLAYER
 49
-0.5
 62
   256
  6
BYLAYER
  0
ACDBPLACEHOLDER
  5
5
102
{ACAD_REACTORS
330
6
102
}
330
6
  0
TABLESTYLE
  5
5C4
102
{ACAD_XDICTIONARY
360
23D9
102
}
102
{ACAD_REACTORS
330
5C3
102
}
330
5C3
100
AcDbTableStyle
  3
Standard
 70
     0
 71
     0
 40
1.5
 41
1.5
280
     0
281
     0
  7
Standard
140
4.5
170
     2
 62
     0
 63
     7
283
     0
274
    -2
284
     1
 64
     0
275
    -2
285
     1
 65
     0
276
    -2
286
     1
 66
     0
277
    -2
287
     1
 67
     0
278
    -2
288
     1
 68
     0
279
    -2
289
     1
 69
     0
  7
Standard
140
6.0
170
     5
 62
     0
 63
     7
283
     0
274
    -2
284
     1
 64
     0
275
    -2
285
     1
 65
     0
276
    -2
286
     1
 66
     0
277
    -2
287
     1
 67
     0
278
    -2
288
     1
 68
     0
279
    -2
289
     1
 69
     0
  7
Standard
140
4.5
170
     5
 62
     0
 63
     7
283
     0
274
    -2
284
     1
 64
     0
275
    -2
285
     1
 65
     0
276
    -2
286
     1
 66
     0
277
    -2
287
     1
 67
     0
278
    -2
288
     1
 68
     0
279
    -2
289
     1
 69
     0
  0
VISUALSTYLE
  5
228A
102
{ACAD_REACTORS
330
2284
102
}
330
2284
100
AcDbVisualStyle
  2
2dWireframe
 70
     4
 71
     0
 72
     2
 73
     0
 90
        0
 40
-0.6
 41
-30.0
 62
     5
 63
     7
421
 16777215
 74
     1
 91
        4
 64
     7
 65
   257
 75
     1
175
     1
 42
1.0
 92
        0
 66
   257
 43
1.0
 76
     1
 77
     6
 78
     2
 67
     7
 79
     5
170
     0
171
     0
290
     0
174
     0
 93
        1
 44
0.0
173
     0
291
     0
 45
0.0
1001
ACAD
1000
AcDbSavedByObjectVersion
1070
     0
1000
AcDbSavedByObjectVersion
1070
     0
  0
VISUALSTYLE
  5
228C
102
{ACAD_REACTORS
330
2284
102
}
330
2284
100
AcDbVisualStyle
  2
3D Hidden
 70
     6
 71
     1
 72
     2
 73
     2
 90
        0
 40
-0.6
 41
-30.0
 62
     5
 63
     7
421
 16777215
 74
     2
 91
        2
 64
     7
 65
   257
 75
     2
175
     1
 42
40.0
 92
        0
 66
   257
 43
1.0
 76
     1
 77
     6
 78
     2
 67
     7
 79
     3
170
     0
171
     0
290
     0
174
     0
 93
        1
 44
0.0
173
     0
291
     0
 45
0.0
1001
ACAD
1000
AcDbSavedByObjectVersion
1070
     0
1000
AcDbSavedByObjectVersion
1070
     0
  0
VISUALSTYLE
  5
228B
102
{ACAD_REACTORS
330
2284
102
}
330
2284
100
AcDbVisualStyle
  2
3dWireframe
 70
     5
 71
     0
 72
     2
 73
     0
 90
        0
 40
-0.6
 41
-30.0
 62
     5
 63
     7
421
 16777215
 74
     1
 91
        4
 64
     7
 65
   257
 75
     1
175
     1
 42
1.0
 92
        0
 66
   257
 43
1.0
 76
     1
 77
     6
 78
     2
 67
     7
 79
     5
170
     0
171
     0
290
     0
174
     0
 93
        1
 44
0.0
173
     0
291
     0
 45
0.0
1001
ACAD
1000
AcDbSavedByObjectVersion
1070
     0
1000
AcDbSavedByObjectVersion
1070
     0
  0
VISUALSTYLE
  5
2289
102
{ACAD_REACTORS
330
2284
102
}
330
2284
100
AcDbVisualStyle
  2
Basic
 70
     7
 71
     1
 72
     0
 73
     1
 90
        0
 40
-0.6
 41
-30.0
 62
     5
 63
     7
421
 16777215
 74
     0
 91
        4
 64
     7
 65
   257
 75
     1
175
     1
 42
1.0
 92
        8
 66
     7
 43
1.0
 76
     1
 77
     6
 78
     2
 67
     7
 79
     5
170
     0
171
     0
290
     0
174
     0
 93
        1
 44
0.0
173
     0
291
     1
 45
0.0
1001
ACAD
1000
AcDbSavedByObjectVersion
1070
     0
1000
AcDbSavedByObjectVersion
1070
     0
  0
VISUALSTYLE
  5
2290
102
{ACAD_REACTORS
330
2284
102
}
330
2284
100
AcDbVisualStyle
  2
Brighten
 70
    12
 71
     2
 72
     2
 73
     0
 90
        0
 40
-0.6
 41
-30.0
 62
     5
 63
     7
421
 16777215
 74
     1
 91
        4
 64
     7
 65
   257
 75
     1
175
     1
 42
1.0
 92
        8
 66
     7
 43
1.0
 76
     1
 77
     6
 78
     2
 67
     7
 79
     5
170
     0
171
     0
290
     0
174
     0
 93
        1
 44
50.0
173
     0
291
     1
 45
0.0
1001
ACAD
1000
AcDbSavedByObjectVersion
1070
     0
1000
AcDbSavedByObjectVersion
1070
     0
  0
VISUALSTYLE
  5
2294
102
{ACAD_REACTORS
330
2284
102
}
330
2284
100
AcDbVisualStyle
  2
ColorChange
 70
    16
 71
     2
 72
     2
 73
     3
 90
        0
 40
-0.6
 41
-30.0
 62
     5
 63
     8
421
  8421504
 74
     1
 91
        4
 64
     7
 65
   257
 75
     1
175
     1
 42
1.0
 92
        8
 66
     8
424
  8421504
 43
1.0
 76
     1
 77
     6
 78
     2
 67
     7
 79
     5
170
     0
171
     0
290
     0
174
     0
 93
        1
 44
0.0
173
     0
291
     1
 45
0.0
1001
ACAD
1000
AcDbSavedByObjectVersion
1070
     0
1000
AcDbSavedByObjectVersion
1070
     0
  0
VISUALSTYLE
  5
228D
102
{ACAD_REACTORS
330
2284
102
}
330
2284
100
AcDbVisualStyle
  2
Conceptual
 70
     9
 71
     3
 72
     2
 73
     0
 90
        0
 40
-0.6
 41
-30.0
 62
     5
 63
     7
421
 16777215
 74
     2
 91
        2
 64
     7
 65
   257
 75
     1
175
     1
 42
40.0
 92
        8
 66
     7
 43
1.0
 76
     1
 77
     6
 78
     2
 67
     7
 79
     3
170
     0
171
     0
290
     0
174
     0
 93
        1
 44
0.0
173
     0
291
     0
 45
0.0
1001
ACAD
1000
AcDbSavedByObjectVersion
1070
     0
1000
AcDbSavedByObjectVersion
1070
     0
  0
VISUALSTYLE
  5
228F
102
{ACAD_REACTORS
330
2284
102
}
330
2284
100
AcDbVisualStyle
  2
Dim
 70
    11
 71
     2
 72
     2
 73
     0
 90
        0
 40
-0.6
 41
-30.0
 62
     5
 63
     7
421
 16777215
 74
     1
 91
        4
 64
     7
 65
   257
 75
     1
175
     1
 42
1.0
 92
        8
 66
     7
 43
1.0
 76
     1
 77
     6
 78
     2
 67
     7
 79
     5
170
     0
171
     0
290
     0
174
     0
 93
        1
 44
-50.0
173
     0
291
     1
 45
0.0
1001
ACAD
1000
AcDbSavedByObjectVersion
1070
     0
1000
AcDbSavedByObjectVersion
1070
     0
  0
VISUALSTYLE
  5
2293
102
{ACAD_REACTORS
330
2284
102
}
330
2284
100
AcDbVisualStyle
  2
Facepattern
 70
    15
 71
     2
 72
     2
 73
     0
 90
        0
 40
-0.6
 41
-30.0
 62
     5
 63
     7
421
 16777215
 74
     1
 91
        4
 64
     7
 65
   257
 75
     1
175
     1
 42
1.0
 92
        8
 66
     7
 43
1.0
 76
     1
 77
     6
 78
     2
 67
     7
 79
     5
170
     0
171
     0
290
     0
174
     0
 93
        1
 44
0.0
173
     0
291
     1
 45
0.0
1001
ACAD
1000
AcDbSavedByObjectVersion
1070
     0
1000
AcDbSavedByObjectVersion
1070
     0
  0
VISUALSTYLE
  5
2285
102
{ACAD_REACTORS
330
2284
102
}
330
2284
100
AcDbVisualStyle
  2
Flat
 70
     0
 71
     2
 72
     1
 73
     1
 90
        2
 40
-0.6
 41
30.0
 62
     5
 63
     7
421
 16777215
 74
     0
 91
        4
 64
     7
 65
   257
 75
     1
175
     1
 42
1.0
 92
        8
 66
     7
 43
1.0
 76
     1
 77
     6
 78
     2
 67
     7
 79
     5
170
     0
171
     0
290
     0
174
     0
 93
       13
 44
0.0
173
     0
291
     1
 45
0.0
1001
ACAD
1000
AcDbSavedByObjectVersion
1070
     0
1000
AcDbSavedByObjectVersion
1070
     0
  0
VISUALSTYLE
  5
2286
102
{ACAD_REACTORS
330
2284
102
}
330
2284
100
AcDbVisualStyle
  2
FlatWithEdges
 70
     1
 71
     2
 72
     1
 73
     1
 90
        2
 40
-0.6
 41
30.0
 62
     5
 63
     7
421
 16777215
 74
     1
 91
        4
 64
     7
 65
   257
 75
     1
175
     1
 42
1.0
 92
        0
 66
   257
 43
1.0
 76
     1
 77
     6
 78
     2
 67
     7
 79
     5
170
     0
171
     0
290
     0
174
     0
 93
       13
 44
0.0
173
     0
291
     1
 45
0.0
1001
ACAD
1000
AcDbSavedByObjectVersion
1070
     0
1000
AcDbSavedByObjectVersion
1070
     0
  0
VISUALSTYLE
  5
2287
102
{ACAD_REACTORS
330
2284
102
}
330
2284
100
AcDbVisualStyle
  2
Gouraud
 70
     2
 71
     2
 72
     2
 73
     1
 90
        2
 40
-0.6
 41
30.0
 62
     5
 63
     7
421
 16777215
 74
     0
 91
        4
 64
     7
 65
   257
 75
     1
175
     1
 42
1.0
 92
        0
 66
     7
 43
1.0
 76
     1
 77
     6
 78
     2
 67
     7
 79
     5
170
     0
171
     0
290
     0
174
     0
 93
       13
 44
0.0
173
     0
291
     1
 45
0.0
1001
ACAD
1000
AcDbSavedByObjectVersion
1070
     0
1000
AcDbSavedByObjectVersion
1070
     0
  0
VISUALSTYLE
  5
2288
102
{ACAD_REACTORS
330
2284
102
}
330
2284
100
AcDbVisualStyle
  2
GouraudWithEdges
 70
     3
 71
     2
 72
     2
 73
     1
 90
        2
 40
-0.6
 41
30.0
 62
     5
 63
     7
421
 16777215
 74
     1
 91
        4
 64
     7
 65
   257
 75
     1
175
     1
 42
1.0
 92
        0
 66
   257
 43
1.0
 76
     1
 77
     6
 78
     2
 67
     7
 79
     5
170
     0
171
     0
290
     0
174
     0
 93
       13
 44
0.0
173
     0
291
     1
 45
0.0
1001
ACAD
1000
AcDbSavedByObjectVersion
1070
     0
1000
AcDbSavedByObjectVersion
1070
     0
  0
VISUALSTYLE
  5
2292
102
{ACAD_REACTORS
330
2284
102
}
330
2284
100
AcDbVisualStyle
  2
Linepattern
 70
    14
 71
     2
 72
     2
 73
     0
 90
        0
 40
-0.6
 41
-30.0
 62
     5
 63
     7
421
 16777215
 74
     1
 91
        4
 64
     7
 65
   257
 75
     7
175
     7
 42
1.0
 92
        8
 66
     7
 43
1.0
 76
     1
 77
     6
 78
     2
 67
     7
 79
     5
170
     0
171
     0
290
     0
174
     0
 93
        1
 44
0.0
173
     0
291
     1
 45
0.0
1001
ACAD
1000
AcDbSavedByObjectVersion
1070
     0
1000
AcDbSavedByObjectVersion
1070
     0
  0
VISUALSTYLE
  5
228E
102
{ACAD_REACTORS
330
2284
102
}
330
2284
100
AcDbVisualStyle
  2
Realistic
 70
     8
 71
     2
 72
     2
 73
     0
 90
        0
 40
-0.6
 41
-30.0
 62
     5
 63
     7
421
 16777215
 74
     1
 91
        0
 64
     7
 65
   257
 75
     1
175
     1
 42
1.0
 92
        8
 66
     8
424
  7895160
 43
1.0
 76
     1
 77
     6
 78
     2
 67
     7
 79
     5
170
     0
171
     0
290
     0
174
     0
 93
       13
 44
0.0
173
     0
291
     0
 45
0.0
1001
ACAD
1000
AcDbSavedByObjectVersion
1070
     0
1000
AcDbSavedByObjectVersion
1070
     0
  0
VISUALSTYLE
  5
2291
102
{ACAD_REACTORS
330
2284
102
}
330
2284
100
AcDbVisualStyle
  2
Thicken
 70
    13
 71
     2
 72
     2
 73
     0
 90
        0
 40
-0.6
 41
-30.0
 62
     5
 63
     7
421
 16777215
 74
     1
 91
        4
 64
     7
 65
   257
 75
     1
175
     1
 42
1.0
 92
       12
 66
     7
 43
1.0
 76
     1
 77
     6
 78
     2
 67
     7
 79
     5
170
     0
171
     0
290
     0
174
     0
 93
        1
 44
0.0
173
     0
291
     1
 45
0.0
1001
ACAD
1000
AcDbSavedByObjectVersion
1070
     0
1000
AcDbSavedByObjectVersion
1070
     0
  0
DICTIONARYVAR
  5
5EE
102
{ACAD_REACTORS
330
81
102
}
330
81
100
DictionaryVariables
280
     0
  1
STANDARD
  0
DICTIONARYVAR
  5
82
102
{ACAD_REACTORS
330
81
102
}
330
81
100
DictionaryVariables
280
     0
  1
1
  0
DICTIONARYVAR
  5
225B
102
{ACAD_REACTORS
330
81
102
}
330
81
100
DictionaryVariables
280
     0
  1

  0
DICTIONARY
  5
22A4
330
2282
100
AcDbDictionary
280
     1
281
     1
  3
ACAD_XREC_ROUNDTRIP
360
22A5
  0
DICTIONARY
  5
22A2
330
2281
100
AcDbDictionary
280
     1
281
     1
  3
ACAD_XREC_ROUNDTRIP
360
22A3
  0
DICTIONARY
  5
22A6
330
2283
100
AcDbDictionary
280
     1
281
     1
  3
ACAD_XREC_ROUNDTRIP
360
22A7
  0
DICTIONARY
  5
23D9
330
5C4
100
AcDbDictionary
280
     1
281
     1
  3
ACAD_XREC_ROUNDTRIP
360
23DA
  0
XRECORD
  5
22A5
102
{ACAD_REACTORS
330
22A4
102
}
330
22A4
100
AcDbXrecord
280
     1
102
MATERIAL
148
0.0
149
0.0
149
0.0
 93
        0
 94
       63
282
     0
 72
     1
 77
     1
171
     1
175
     1
179
     1
273
     0
  0
XRECORD
  5
22A3
102
{ACAD_REACTORS
330
22A2
102
}
330
22A2
100
AcDbXrecord
280
     1
102
MATERIAL
148
0.0
149
0.0
149
0.0
 93
        0
 94
       63
282
     0
 72
     1
 77
     1
171
     1
175
     1
179
     1
273
     0
  0
XRECORD
  5
22A7
102
{ACAD_REACTORS
330
22A6
102
}
330
22A6
100
AcDbXrecord
280
     1
102
MATERIAL
148
0.0
149
0.0
149
0.0
 93
        0
 94
       63
282
     0
 72
     1
 77
     1
171
     1
175
     1
179
     1
273
     0
  0
XRECORD
  5
23DA
102
{ACAD_REACTORS
330
23D9
102
}
330
23D9
100
AcDbXrecord
280
     1
102
ACAD_ROUNDTRIP_PRE2007_TABLESTYLE
 90
        4
 91
        0
  1

 92
        4
 93
        0
  2

 94
        4
 95
        0
  3

  0
ENDSEC
  0
EOF
